  0
SECTION
  2
HEADER
  9
$ACADVER
  1
AC1015
  9
$ACADMAINTVER
 70
    20
  9
$DWGCODEPAGE
  3
ANSI_932
  9
$INSBASE
 10
0.0
 20
0.0
 30
0.0
  9
$EXTMIN
 10
-391.1376744019938
 20
-61.22731900082996
 30
0.0
  9
$EXTMAX
 10
-67.10022415234153
 20
399.5068199467501
 30
0.0
  9
$LIMMIN
 10
0.0
 20
0.0
  9
$LIMMAX
 10
12.0
 20
9.0
  9
$ORTHOMODE
 70
     0
  9
$REGENMODE
 70
     1
  9
$FILLMODE
 70
     1
  9
$QTEXTMODE
 70
     0
  9
$MIRRTEXT
 70
     1
  9
$LTSCALE
 40
1.0
  9
$ATTMODE
 70
     1
  9
$TEXTSIZE
 40
1.0
  9
$TRACEWID
 40
0.05
  9
$TEXTSTYLE
  7
STANDARD
  9
$CLAYER
  8
0
  9
$CELTYPE
  6
ByLayer
  9
$CECOLOR
 62
   256
  9
$CELTSCALE
 40
1.0
  9
$DISPSILH
 70
     0
  9
$DIMSCALE
 40
1.0
  9
$DIMASZ
 40
1.0
  9
$DIMEXO
 40
1.0
  9
$DIMDLI
 40
0.38
  9
$DIMRND
 40
0.0
  9
$DIMDLE
 40
0.0
  9
$DIMEXE
 40
1.0
  9
$DIMTP
 40
0.0
  9
$DIMTM
 40
0.0
  9
$DIMTXT
 40
5.0
  9
$DIMCEN
 40
0.09
  9
$DIMTSZ
 40
0.0
  9
$DIMTOL
 70
     0
  9
$DIMLIM
 70
     0
  9
$DIMTIH
 70
     0
  9
$DIMTOH
 70
     0
  9
$DIMSE1
 70
     0
  9
$DIMSE2
 70
     0
  9
$DIMTAD
 70
     1
  9
$DIMZIN
 70
     0
  9
$DIMBLK
  1

  9
$DIMASO
 70
     1
  9
$DIMSHO
 70
     1
  9
$DIMPOST
  1

  9
$DIMAPOST
  1

  9
$DIMALT
 70
     0
  9
$DIMALTD
 70
     2
  9
$DIMALTF
 40
25.4
  9
$DIMLFAC
 40
1.0
  9
$DIMTOFL
 70
     0
  9
$DIMTVP
 40
0.0
  9
$DIMTIX
 70
     0
  9
$DIMSOXD
 70
     0
  9
$DIMSAH
 70
     0
  9
$DIMBLK1
  1

  9
$DIMBLK2
  1

  9
$DIMSTYLE
  2
Standard
  9
$DIMCLRD
 70
     0
  9
$DIMCLRE
 70
     0
  9
$DIMCLRT
 70
     0
  9
$DIMTFAC
 40
1.0
  9
$DIMGAP
 40
1.0
  9
$DIMJUST
 70
     0
  9
$DIMSD1
 70
     0
  9
$DIMSD2
 70
     0
  9
$DIMTOLJ
 70
     1
  9
$DIMTZIN
 70
     0
  9
$DIMALTZ
 70
     0
  9
$DIMALTTZ
 70
     0
  9
$DIMUPT
 70
     0
  9
$DIMDEC
 70
     0
  9
$DIMTDEC
 70
     0
  9
$DIMALTU
 70
     2
  9
$DIMALTTD
 70
     2
  9
$DIMTXSTY
  7
STANDARD
  9
$DIMAUNIT
 70
     0
  9
$DIMADEC
 70
     0
  9
$DIMALTRND
 40
0.0
  9
$DIMAZIN
 70
     0
  9
$DIMDSEP
 70
    46
  9
$DIMATFIT
 70
     3
  9
$DIMFRAC
 70
     0
  9
$DIMLDRBLK
  1

  9
$DIMLUNIT
 70
     2
  9
$DIMLWD
 70
    -2
  9
$DIMLWE
 70
    -2
  9
$DIMTMOVE
 70
     0
  9
$LUNITS
 70
     2
  9
$LUPREC
 70
     4
  9
$SKETCHINC
 40
0.1
  9
$FILLETRAD
 40
0.0
  9
$AUNITS
 70
     0
  9
$AUPREC
 70
     0
  9
$MENU
  1
acad
  9
$ELEVATION
 40
0.0
  9
$PELEVATION
 40
0.0
  9
$THICKNESS
 40
0.0
  9
$LIMCHECK
 70
     0
  9
$CHAMFERA
 40
0.0
  9
$CHAMFERB
 40
0.0
  9
$CHAMFERC
 40
0.0
  9
$CHAMFERD
 40
0.0
  9
$SKPOLY
 70
     0
  9
$TDCREATE
 40
2305814.417176053
  9
$TDUCREATE
 40
6.0000000000
  9
$TDUPDATE
 40
2455447.417262547
  9
$TDUUPDATE
 40
2455447.042262546
  9
$TDINDWG
 40
0.0260944907
  9
$TDUSRTIMER
 40
0.0260941204
  9
$USRTIMER
 70
     1
  9
$ANGBASE
 50
0.0
  9
$ANGDIR
 70
     0
  9
$PDMODE
 70
     0
  9
$PDSIZE
 40
0.0
  9
$PLINEWID
 40
0.0
  9
$SPLFRAME
 70
     0
  9
$SPLINETYPE
 70
     6
  9
$SPLINESEGS
 70
     8
  9
$HANDSEED
  5
270A
  9
$SURFTAB1
 70
     6
  9
$SURFTAB2
 70
     6
  9
$SURFTYPE
 70
     6
  9
$SURFU
 70
     6
  9
$SURFV
 70
     6
  9
$UCSBASE
  2

  9
$UCSNAME
  2

  9
$UCSORG
 10
0.0
 20
0.0
 30
0.0
  9
$UCSXDIR
 10
1.0
 20
0.0
 30
0.0
  9
$UCSYDIR
 10
0.0
 20
1.0
 30
0.0
  9
$UCSORTHOREF
  2

  9
$UCSORTHOVIEW
 70
     0
  9
$UCSORGTOP
 10
0.0
 20
0.0
 30
0.0
  9
$UCSORGBOTTOM
 10
0.0
 20
0.0
 30
0.0
  9
$UCSORGLEFT
 10
0.0
 20
0.0
 30
0.0
  9
$UCSORGRIGHT
 10
0.0
 20
0.0
 30
0.0
  9
$UCSORGFRONT
 10
0.0
 20
0.0
 30
0.0
  9
$UCSORGBACK
 10
0.0
 20
0.0
 30
0.0
  9
$PUCSBASE
  2

  9
$PUCSNAME
  2

  9
$PUCSORG
 10
0.0
 20
0.0
 30
0.0
  9
$PUCSXDIR
 10
1.0
 20
0.0
 30
0.0
  9
$PUCSYDIR
 10
0.0
 20
1.0
 30
0.0
  9
$PUCSORTHOREF
  2

  9
$PUCSORTHOVIEW
 70
     0
  9
$PUCSORGTOP
 10
0.0
 20
0.0
 30
0.0
  9
$PUCSORGBOTTOM
 10
0.0
 20
0.0
 30
0.0
  9
$PUCSORGLEFT
 10
0.0
 20
0.0
 30
0.0
  9
$PUCSORGRIGHT
 10
0.0
 20
0.0
 30
0.0
  9
$PUCSORGFRONT
 10
0.0
 20
0.0
 30
0.0
  9
$PUCSORGBACK
 10
0.0
 20
0.0
 30
0.0
  9
$USERI1
 70
     0
  9
$USERI2
 70
     0
  9
$USERI3
 70
     0
  9
$USERI4
 70
     0
  9
$USERI5
 70
     0
  9
$USERR1
 40
0.0
  9
$USERR2
 40
0.0
  9
$USERR3
 40
0.0
  9
$USERR4
 40
0.0
  9
$USERR5
 40
0.0
  9
$WORLDVIEW
 70
     1
  9
$SHADEDGE
 70
     3
  9
$SHADEDIF
 70
    70
  9
$TILEMODE
 70
     1
  9
$MAXACTVP
 70
    16
  9
$PINSBASE
 10
0.0
 20
0.0
 30
0.0
  9
$PLIMCHECK
 70
     0
  9
$PEXTMIN
 10
1.000000000000000E+20
 20
1.000000000000000E+20
 30
1.000000000000000E+20
  9
$PEXTMAX
 10
-1.000000000000000E+20
 20
-1.000000000000000E+20
 30
-1.000000000000000E+20
  9
$PLIMMIN
 10
0.0
 20
0.0
  9
$PLIMMAX
 10
12.0
 20
297.0
  9
$UNITMODE
 70
     0
  9
$VISRETAIN
 70
     0
  9
$PLINEGEN
 70
     0
  9
$PSLTSCALE
 70
     1
  9
$TREEDEPTH
 70
  3020
  9
$CMLSTYLE
  2
Standard
  9
$CMLJUST
 70
     0
  9
$CMLSCALE
 40
1.0
  9
$PROXYGRAPHICS
 70
     1
  9
$MEASUREMENT
 70
     0
  9
$CELWEIGHT
370
    -1
  9
$ENDCAPS
280
     0
  9
$JOINSTYLE
280
     0
  9
$LWDISPLAY
290
     0
  9
$INSUNITS
 70
     0
  9
$HYPERLINKBASE
  1

  9
$STYLESHEET
  1
monochrome.ctb
  9
$XEDIT
290
     1
  9
$CEPSNTYPE
380
     0
  9
$PSTYLEMODE
290
     1
  9
$FINGERPRINTGUID
  2
{8E543D13-C4B1-44F8-B8FA-BBF5D819A44F}
  9
$VERSIONGUID
  2
{B3AFEA98-03C2-4CAF-AF2B-9E682EDF7319}
  9
$EXTNAMES
290
     1
  9
$PSVPSCALE
 40
0.0
  9
$OLESTARTUP
290
     0
  0
ENDSEC
  0
SECTION
  2
CLASSES
  0
CLASS
  1
ACDBDICTIONARYWDFLT
  2
AcDbDictionaryWithDefault
  3
ObjectDBX Classes
 90
        0
280
     0
281
     0
  0
CLASS
  1
TABLESTYLE
  2
AcDbTableStyle
  3
ObjectDBX Classes
 90
     2047
280
     0
281
     0
  0
CLASS
  1
DICTIONARYVAR
  2
AcDbDictionaryVar
  3
ObjectDBX Classes
 90
        0
280
     0
281
     0
  0
CLASS
  1
SORTENTSTABLE
  2
AcDbSortentsTable
  3
ObjectDBX Classes
 90
        0
280
     0
281
     0
  0
CLASS
  1
ACDBPLACEHOLDER
  2
AcDbPlaceHolder
  3
ObjectDBX Classes
 90
        0
280
     0
281
     0
  0
CLASS
  1
LAYOUT
  2
AcDbLayout
  3
ObjectDBX Classes
 90
        0
280
     0
281
     0
  0
ENDSEC
  0
SECTION
  2
TABLES
  0
TABLE
  2
VPORT
  5
8
330
0
100
AcDbSymbolTable
 70
     3
  0
VPORT
  5
2703
330
8
100
AcDbSymbolTableRecord
100
AcDbViewportTableRecord
  2
*Active
 70
     0
 10
0.0
 20
0.0
 11
1.0
 21
1.0
 12
-194.5300373731727
 22
55.0606804135449
 13
0.0
 23
0.0
 14
1.0
 24
1.0
 15
0.0
 25
0.0
 16
0.0
 26
0.0
 36
1.0
 17
0.0
 27
0.0
 37
0.0
 40
306.0602405980956
 41
1.537760416666666
 42
50.0
 43
0.0
 44
0.0
 50
0.0
 51
0.0
 71
     0
 72
   100
 73
     1
 74
     1
 75
     0
 76
     0
 77
     0
 78
     0
281
     0
 65
     1
110
0.0
120
0.0
130
0.0
111
1.0
121
0.0
131
0.0
112
0.0
122
1.0
132
0.0
 79
     0
146
0.0
  0
ENDTAB
  0
TABLE
  2
LTYPE
  5
5
330
0
100
AcDbSymbolTable
 70
     4
  0
LTYPE
  5
13
330
5
100
AcDbSymbolTableRecord
100
AcDbLinetypeTableRecord
  2
ByBlock
 70
     0
  3

 72
    65
 73
     0
 40
0.0
  0
LTYPE
  5
14
330
5
100
AcDbSymbolTableRecord
100
AcDbLinetypeTableRecord
  2
ByLayer
 70
     0
  3

 72
    65
 73
     0
 40
0.0
  0
LTYPE
  5
15
330
5
100
AcDbSymbolTableRecord
100
AcDbLinetypeTableRecord
  2
CONTINUOUS
 70
     0
  3
Solid line
 72
    65
 73
     0
 40
0.0
  0
LTYPE
  5
26
330
5
100
AcDbSymbolTableRecord
100
AcDbLinetypeTableRecord
  2
DASHED
 70
     0
  3
__ __ __ __ __ __ __ __ __ __
 72
    65
 73
     2
 40
0.75
 49
0.5
 74
     0
 49
-0.25
 74
     0
  0
LTYPE
  5
35
330
5
100
AcDbSymbolTableRecord
100
AcDbLinetypeTableRecord
  2
DASHDOT
 70
     0
  3
__ . __ . __ . __ . __ . __ . __
 72
    65
 73
     4
 40
1.0
 49
0.5
 74
     0
 49
-0.25
 74
     0
 49
0.0
 74
     0
 49
-0.25
 74
     0
  0
LTYPE
  5
20E8
330
5
100
AcDbSymbolTableRecord
100
AcDbLinetypeTableRecord
  2
CENTER
 70
     0
  3
Center ____ _ ____ _ ____ _ ____ _ ____ _ ____
 72
    65
 73
     4
 40
12.0
 49
7.5
 74
     0
 49
-1.5
 74
     0
 49
1.5
 74
     0
 49
-1.5
 74
     0
  0
ENDTAB
  0
TABLE
  2
LAYER
  5
2
102
{ACAD_XDICTIONARY
360
20EC
102
}
330
0
100
AcDbSymbolTable
 70
     8
  0
LAYER
  5
10
330
2
100
AcDbSymbolTableRecord
100
AcDbLayerTableRecord
  2
0
 70
     0
 62
     7
  6
CONTINUOUS
370
    -3
390
F
  0
LAYER
  5
3E
330
2
100
AcDbSymbolTableRecord
100
AcDbLayerTableRecord
  2
5
 70
     0
 62
     3
  6
CONTINUOUS
370
    -3
390
F
  0
LAYER
  5
5D5
330
2
100
AcDbSymbolTableRecord
100
AcDbLayerTableRecord
  2
Defpoints
 70
     0
 62
     7
  6
CONTINUOUS
290
     0
370
    -3
390
F
  0
LAYER
  5
C61
330
2
100
AcDbSymbolTableRecord
100
AcDbLayerTableRecord
  2
23
 70
     0
 62
     3
  6
CONTINUOUS
370
    -3
390
F
  0
LAYER
  5
C62
330
2
100
AcDbSymbolTableRecord
100
AcDbLayerTableRecord
  2
1024
 70
     0
 62
     3
  6
CONTINUOUS
370
    -3
390
F
  0
LAYER
  5
20E9
330
2
100
AcDbSymbolTableRecord
100
AcDbLayerTableRecord
  2
8
 70
     0
 62
     7
  6
CONTINUOUS
370
    -3
390
F
  0
LAYER
  5
20EA
330
2
100
AcDbSymbolTableRecord
100
AcDbLayerTableRecord
  2
KIKI
 70
     0
 62
     3
  6
CONTINUOUS
370
    -3
390
F
  0
LAYER
  5
20EB
330
2
100
AcDbSymbolTableRecord
100
AcDbLayerTableRecord
  2
SIZE
 70
     0
 62
     3
  6
CONTINUOUS
370
    -3
390
F
  0
ENDTAB
  0
TABLE
  2
STYLE
  5
3
330
0
100
AcDbSymbolTable
 70
     2
  0
STYLE
  5
11
330
3
100
AcDbSymbolTableRecord
100
AcDbTextStyleTableRecord
  2
STANDARD
 70
     0
 40
5.0
 41
1.0
 50
0.0
 71
     0
 42
1.0
  3
txt.shx
  4
@extfont2.shx
  0
STYLE
  5
44
330
3
100
AcDbSymbolTableRecord
100
AcDbTextStyleTableRecord
  2
BIGFONT
 70
     0
 40
1.0
 41
1.0
 50
0.0
 71
     0
 42
1.0
  3
txt
  4
bigfont
  0
ENDTAB
  0
TABLE
  2
VIEW
  5
6
330
0
100
AcDbSymbolTable
 70
     0
  0
ENDTAB
  0
TABLE
  2
UCS
  5
7
330
0
100
AcDbSymbolTable
 70
     0
  0
ENDTAB
  0
TABLE
  2
APPID
  5
9
330
0
100
AcDbSymbolTable
 70
     3
  0
APPID
  5
12
330
9
100
AcDbSymbolTableRecord
100
AcDbRegAppTableRecord
  2
ACAD
 70
     0
  0
APPID
  5
6C0
330
9
100
AcDbSymbolTableRecord
100
AcDbRegAppTableRecord
  2
ACAD_DSTYLE_DIMTEXT_FILL
 70
     0
  0
APPID
  5
ABB
330
9
100
AcDbSymbolTableRecord
100
AcDbRegAppTableRecord
  2
ACAD_PSEXT
 70
     0
  0
ENDTAB
  0
TABLE
  2
DIMSTYLE
  5
A
330
0
100
AcDbSymbolTable
 70
     1
100
AcDbDimStyleTable
 71
     1
340
4EA
  0
DIMSTYLE
105
4EA
102
{ACAD_REACTORS
330
23E9
330
23F6
102
}
330
A
100
AcDbSymbolTableRecord
100
AcDbDimStyleTableRecord
  2
Standard
 70
     0
 41
1.0
 42
1.0
 44
1.0
 73
     0
 74
     0
 77
     1
140
5.0
147
1.0
271
     0
272
     0
340
11
  0
ENDTAB
  0
TABLE
  2
BLOCK_RECORD
  5
1
330
0
100
AcDbSymbolTable
 70
    13
  0
BLOCK_RECORD
  5
22
102
{ACAD_XDICTIONARY
360
2450
102
}
330
1
100
AcDbSymbolTableRecord
100
AcDbBlockTableRecord
  2
*Model_Space
340
25
  0
BLOCK_RECORD
  5
1E
330
1
100
AcDbSymbolTableRecord
100
AcDbBlockTableRecord
  2
*Paper_Space
340
21
  0
BLOCK_RECORD
  5
23EA
330
1
100
AcDbSymbolTableRecord
100
AcDbBlockTableRecord
  2
*D5
340
0
  0
BLOCK_RECORD
  5
23F7
330
1
100
AcDbSymbolTableRecord
100
AcDbBlockTableRecord
  2
*D6
340
0
  0
ENDTAB
  0
ENDSEC
  0
SECTION
  2
BLOCKS
  0
BLOCK
  5
23
330
22
100
AcDbEntity
  8
0
100
AcDbBlockBegin
  2
*Model_Space
 70
     0
 10
0.0
 20
0.0
 30
0.0
  3
*Model_Space
  1

  0
ENDBLK
  5
24
330
22
100
AcDbEntity
  8
0
100
AcDbBlockEnd
  0
BLOCK
  5
1F
330
1E
100
AcDbEntity
 67
     1
  8
0
100
AcDbBlockBegin
  2
*Paper_Space
 70
     0
 10
0.0
 20
0.0
 30
0.0
  3
*Paper_Space
  1

  0
ENDBLK
  5
20
330
1E
100
AcDbEntity
 67
     1
  8
0
100
AcDbBlockEnd
  0
BLOCK
  5
23F4
330
23EA
100
AcDbEntity
  8
0
100
AcDbBlockBegin
  2
*D5
 70
     1
 10
0.0
 20
0.0
 30
0.0
  3
*D5
  1

  0
LINE
  5
241E
330
23EA
100
AcDbEntity
  8
0
 62
     0
370
    -2
100
AcDbLine
 10
-324.1053921598157
 20
56.81996936260268
 30
0.0
 11
-324.1053921598157
 21
127.9039733081358
 31
0.0
  0
LINE
  5
241F
330
23EA
100
AcDbEntity
  8
0
 62
     0
370
    -2
100
AcDbLine
 10
-244.1053921598157
 20
56.81996936260268
 30
0.0
 11
-244.1053921598157
 21
127.9039733081358
 31
0.0
  0
LINE
  5
2420
330
23EA
100
AcDbEntity
  8
0
 62
     0
370
    -2
100
AcDbLine
 10
-323.1053921598157
 20
126.9039733081358
 30
0.0
 11
-245.1053921598157
 21
126.9039733081358
 31
0.0
  0
SOLID
  5
2421
330
23EA
100
AcDbEntity
  8
0
 62
     0
100
AcDbTrace
 10
-323.1053921598157
 20
127.0706399748025
 30
0.0
 11
-323.1053921598157
 21
126.7373066414692
 31
0.0
 12
-324.1053921598157
 22
126.9039733081358
 32
0.0
 13
-324.1053921598157
 23
126.9039733081358
 33
0.0
  0
SOLID
  5
2422
330
23EA
100
AcDbEntity
  8
0
 62
     0
100
AcDbTrace
 10
-245.1053921598157
 20
127.0706399748025
 30
0.0
 11
-245.1053921598157
 21
126.7373066414692
 31
0.0
 12
-244.1053921598157
 22
126.9039733081358
 32
0.0
 13
-244.1053921598157
 23
126.9039733081358
 33
0.0
  0
MTEXT
  5
2423
330
23EA
100
AcDbEntity
  8
0
 62
     0
100
AcDbMText
 10
-284.1053921598156
 20
130.4039733081358
 30
0.0
 40
5.0
 41
0.0
 71
     5
 72
     1
  1
\A1;80
 73
     1
 44
1.0
1001
ACAD
1000
MTEXTBEGIN
1070
    73
1070
     1
1070
    44
1040
1.0
1070
    74
1070
     0
1000
MTEXTEND
  0
POINT
  5
2424
330
23EA
100
AcDbEntity
  8
Defpoints
 62
     0
100
AcDbPoint
 10
-324.1053921598157
 20
55.81996936260267
 30
0.0
  0
POINT
  5
2425
330
23EA
100
AcDbEntity
  8
Defpoints
 62
     0
100
AcDbPoint
 10
-244.1053921598157
 20
55.81996936260267
 30
0.0
  0
POINT
  5
2426
330
23EA
100
AcDbEntity
  8
Defpoints
 62
     0
100
AcDbPoint
 10
-244.1053921598157
 20
126.9039733081358
 30
0.0
  0
ENDBLK
  5
23F5
330
23EA
100
AcDbEntity
  8
0
100
AcDbBlockEnd
  0
BLOCK
  5
2401
330
23F7
100
AcDbEntity
  8
0
100
AcDbBlockBegin
  2
*D6
 70
     1
 10
0.0
 20
0.0
 30
0.0
  3
*D6
  1

  0
LINE
  5
2415
330
23F7
100
AcDbEntity
  8
0
 62
     0
370
    -2
100
AcDbLine
 10
-156.0842373071777
 20
18.38455336260264
 30
0.0
 11
-156.0842373071777
 21
4.395937712068757
 31
0.0
  0
LINE
  5
2416
330
23F7
100
AcDbEntity
  8
0
 62
     0
370
    -2
100
AcDbLine
 10
-174.0794893071777
 20
55.01481636260264
 30
0.0
 11
-174.0794893071777
 21
4.395937712068757
 31
0.0
  0
LINE
  5
2417
330
23F7
100
AcDbEntity
  8
0
 62
     0
370
    -2
100
AcDbLine
 10
-157.0842373071777
 20
5.395937712068757
 30
0.0
 11
-173.0794893071777
 21
5.395937712068757
 31
0.0
  0
SOLID
  5
2418
330
23F7
100
AcDbEntity
  8
0
 62
     0
100
AcDbTrace
 10
-157.0842373071777
 20
5.562604378735424
 30
0.0
 11
-157.0842373071777
 21
5.22927104540209
 31
0.0
 12
-156.0842373071777
 22
5.395937712068757
 32
0.0
 13
-156.0842373071777
 23
5.395937712068757
 33
0.0
  0
SOLID
  5
2419
330
23F7
100
AcDbEntity
  8
0
 62
     0
100
AcDbTrace
 10
-173.0794893071777
 20
5.562604378735424
 30
0.0
 11
-173.0794893071777
 21
5.22927104540209
 31
0.0
 12
-174.0794893071777
 22
5.395937712068757
 32
0.0
 13
-174.0794893071777
 23
5.395937712068757
 33
0.0
  0
MTEXT
  5
241A
330
23F7
100
AcDbEntity
  8
0
 62
     0
100
AcDbMText
 10
-165.0818633071777
 20
8.895937712068757
 30
0.0
 40
5.0
 41
0.0
 71
     5
 72
     1
  1
\A1;18
 73
     1
 44
1.0
1001
ACAD
1000
MTEXTBEGIN
1070
    73
1070
     1
1070
    44
1040
1.0
1070
    74
1070
     0
1000
MTEXTEND
  0
POINT
  5
241B
330
23F7
100
AcDbEntity
  8
Defpoints
 62
     0
100
AcDbPoint
 10
-156.0842373071777
 20
19.38455336260264
 30
0.0
  0
POINT
  5
241C
330
23F7
100
AcDbEntity
  8
Defpoints
 62
     0
100
AcDbPoint
 10
-174.0794893071777
 20
56.01481636260264
 30
0.0
  0
POINT
  5
241D
330
23F7
100
AcDbEntity
  8
Defpoints
 62
     0
100
AcDbPoint
 10
-174.0794893071777
 20
5.395937712068757
 30
0.0
  0
ENDBLK
  5
2402
330
23F7
100
AcDbEntity
  8
0
100
AcDbBlockEnd
  0
ENDSEC
  0
SECTION
  2
ENTITIES
  0
LINE
  5
195
330
22
100
AcDbEntity
  8
0
  6
Continuous
100
AcDbLine
 10
-168.8342373071777
 20
87.31996936260268
 30
0.0
 11
-161.7842373071777
 21
87.31996936260268
 31
0.0
  0
LINE
  5
196
330
22
100
AcDbEntity
  8
0
  6
Continuous
100
AcDbLine
 10
-168.8342373071777
 20
92.31996936260268
 30
0.0
 11
-161.7842373071777
 21
92.31996936260268
 31
0.0
  0
ARC
  5
197
330
22
100
AcDbEntity
  8
0
  6
Continuous
100
AcDbCircle
 10
-168.8342373071777
 20
89.81996936260266
 30
0.0
 40
2.5
100
AcDbArc
 50
90.0
 51
270.0
  0
LINE
  5
198
330
22
100
AcDbEntity
  8
0
  6
Continuous
100
AcDbLine
 10
-168.8342373071777
 20
24.31996936260268
 30
0.0
 11
-161.7842373071777
 21
24.31996936260268
 31
0.0
  0
LINE
  5
199
330
22
100
AcDbEntity
  8
0
  6
Continuous
100
AcDbLine
 10
-168.8342373071777
 20
19.31996936260268
 30
0.0
 11
-161.7842373071777
 21
19.31996936260268
 31
0.0
  0
ARC
  5
19A
330
22
100
AcDbEntity
  8
0
  6
Continuous
100
AcDbCircle
 10
-168.8342373071777
 20
21.81996936260268
 30
0.0
 40
2.5
100
AcDbArc
 50
90.0
 51
270.0
  0
POINT
  5
1A0
330
22
100
AcDbEntity
  8
0
100
AcDbPoint
 10
-156.3842373071777
 20
15.82520636260253
 30
0.0
  0
POINT
  5
1A1
330
22
100
AcDbEntity
  8
0
100
AcDbPoint
 10
-156.3842373071777
 20
95.81473336260271
 30
0.0
  0
ARC
  5
1A2
330
22
100
AcDbEntity
  8
0
  6
Continuous
100
AcDbCircle
 10
-160.2842373071777
 20
94.51996936260249
 30
0.0
 40
0.5
100
AcDbArc
 50
18.73156299999999
 51
163.268437
  0
ARC
  5
1A3
330
22
100
AcDbEntity
  8
0
  6
Continuous
100
AcDbCircle
 10
-160.2842373071777
 20
17.11996936260263
 30
0.0
 40
0.5
100
AcDbArc
 50
196.731563
 51
341.268437
  0
ARC
  5
1A4
330
22
100
AcDbEntity
  8
0
  6
Continuous
100
AcDbCircle
 10
-161.0503683071777
 20
94.75028036260274
 30
0.0
 40
0.3
100
AcDbArc
 50
271.0
 51
343.268437
  0
ARC
  5
1A5
330
22
100
AcDbEntity
  8
0
  6
Continuous
100
AcDbCircle
 10
-159.5266103071777
 20
94.77687736260277
 30
0.0
 40
0.3
100
AcDbArc
 50
198.7315629999999
 51
271.0
  0
ARC
  5
1A6
330
22
100
AcDbEntity
  8
0
  6
Continuous
100
AcDbCircle
 10
-161.0503683071777
 20
16.88965936260248
 30
0.0
 40
0.3
100
AcDbArc
 50
16.731563
 51
89.0
  0
ARC
  5
1A7
330
22
100
AcDbEntity
  8
0
  6
Continuous
100
AcDbCircle
 10
-159.5266103071777
 20
16.86306136260256
 30
0.0
 40
0.3
100
AcDbArc
 50
89.0
 51
161.268437
  0
LINE
  5
1A8
330
22
100
AcDbEntity
  8
0
  6
Continuous
100
AcDbLine
 10
-171.7634663071777
 20
91.83727036260254
 30
0.0
 11
-172.1842373071777
 21
85.81996936260267
 31
0.0
  0
LINE
  5
1A9
330
22
100
AcDbEntity
  8
0
  6
Continuous
100
AcDbLine
 10
-173.3653373071777
 20
91.86639336260279
 30
0.0
 11
-173.7744933071777
 21
86.01518536260275
 31
0.0
  0
ARC
  5
1AA
330
22
100
AcDbEntity
  8
0
  6
Continuous
100
AcDbCircle
 10
-169.3750813071777
 20
91.58736736260262
 30
0.0
 40
4.0
100
AcDbArc
 50
91.0
 51
176.0
  0
ARC
  5
1AB
330
22
100
AcDbEntity
  8
0
  6
Continuous
100
AcDbCircle
 10
-169.7842373071777
 20
85.73615936260258
 30
0.0
 40
4.0
100
AcDbArc
 50
176.0
 51
180.0
  0
ARC
  5
1AC
330
22
100
AcDbEntity
  8
0
  6
Continuous
100
AcDbCircle
 10
-169.7683383071777
 20
91.69775736260268
 30
0.0
 40
2.0
100
AcDbArc
 50
91.0
 51
176.0
  0
LINE
  5
1AD
330
22
100
AcDbEntity
  8
0
  6
Continuous
100
AcDbLine
 10
-171.7634663071777
 20
19.8026693626027
 30
0.0
 11
-172.1842373071777
 21
25.81996936260268
 31
0.0
  0
LINE
  5
1AE
330
22
100
AcDbEntity
  8
0
  6
Continuous
100
AcDbLine
 10
-173.3653373071777
 20
19.77354536260256
 30
0.0
 11
-173.7744933071777
 21
25.62475336260261
 31
0.0
  0
ARC
  5
1AF
330
22
100
AcDbEntity
  8
0
  6
Continuous
100
AcDbCircle
 10
-169.3750813071777
 20
20.05257136260272
 30
0.0
 40
4.0
100
AcDbArc
 50
184.0
 51
269.0
  0
ARC
  5
1B0
330
22
100
AcDbEntity
  8
0
  6
Continuous
100
AcDbCircle
 10
-169.7842373071777
 20
25.90377936260277
 30
0.0
 40
4.0
100
AcDbArc
 50
180.0
 51
184.0
  0
ARC
  5
1B1
330
22
100
AcDbEntity
  8
0
  6
Continuous
100
AcDbCircle
 10
-169.7683383071777
 20
19.94218236260278
 30
0.0
 40
2.0
100
AcDbArc
 50
184.0
 51
269.0
  0
POINT
  5
1B2
330
22
100
AcDbEntity
  8
0
100
AcDbPoint
 10
-160.2842373071777
 20
94.51996936260249
 30
0.0
  0
POINT
  5
1B3
330
22
100
AcDbEntity
  8
0
100
AcDbPoint
 10
-160.2842373071777
 20
17.11996936260263
 30
0.0
  0
ARC
  5
1B4
330
22
100
AcDbEntity
  8
0
  6
Continuous
100
AcDbCircle
 10
-160.2842373071777
 20
94.51996936260249
 30
0.0
 40
0.5
100
AcDbArc
 50
0.0
 51
180.0
  0
ARC
  5
1B5
330
22
100
AcDbEntity
  8
0
  6
Continuous
100
AcDbCircle
 10
-160.2842373071777
 20
17.11996936260263
 30
0.0
 40
0.5
100
AcDbArc
 50
180.0
 51
0.0
  0
LINE
  5
1B6
330
22
100
AcDbEntity
  8
0
  6
Continuous
100
AcDbLine
 10
-173.7842373071777
 20
85.73615936260258
 30
0.0
 11
-173.7842373071777
 21
57.33983836260264
 31
0.0
  0
POLYLINE
  5
1B7
330
22
100
AcDbEntity
  8
0
  6
Continuous
100
AcDb2dPolyline
 66
     1
 10
0.0
 20
0.0
 30
0.0
 70
     4
 75
     6
  0
VERTEX
  5
1B8
330
1B7
100
AcDbEntity
  8
0
100
AcDbVertex
100
AcDb2dVertex
 10
-173.7842373071777
 20
57.33983836260263
 30
0.0
 70
    16
  0
VERTEX
  5
1B9
330
1B7
100
AcDbEntity
  8
0
100
AcDbVertex
100
AcDb2dVertex
 10
-173.8006933071777
 20
57.2997763626026
 30
0.0
 70
    16
  0
VERTEX
  5
1BA
330
1B7
100
AcDbEntity
  8
0
100
AcDbVertex
100
AcDb2dVertex
 10
-173.8322963071777
 20
57.21911736260263
 30
0.0
 70
    16
  0
VERTEX
  5
1BB
330
1B7
100
AcDbEntity
  8
0
100
AcDbVertex
100
AcDb2dVertex
 10
-173.8757383071777
 20
57.09665236260271
 30
0.0
 70
    16
  0
VERTEX
  5
1BC
330
1B7
100
AcDbEntity
  8
0
100
AcDbVertex
100
AcDb2dVertex
 10
-173.9151823071777
 20
56.97284236260266
 30
0.0
 70
    16
  0
VERTEX
  5
1BD
330
1B7
100
AcDbEntity
  8
0
100
AcDbVertex
100
AcDb2dVertex
 10
-173.9505943071777
 20
56.84781936260261
 30
0.0
 70
    16
  0
VERTEX
  5
1BE
330
1B7
100
AcDbEntity
  8
0
100
AcDbVertex
100
AcDb2dVertex
 10
-173.9819393071777
 20
56.72171736260266
 30
0.0
 70
    16
  0
VERTEX
  5
1BF
330
1B7
100
AcDbEntity
  8
0
100
AcDbVertex
100
AcDb2dVertex
 10
-174.0091833071777
 20
56.5946673626026
 30
0.0
 70
    16
  0
VERTEX
  5
1C0
330
1B7
100
AcDbEntity
  8
0
100
AcDbVertex
100
AcDb2dVertex
 10
-174.0322923071777
 20
56.46680136260257
 30
0.0
 70
    16
  0
VERTEX
  5
1C1
330
1B7
100
AcDbEntity
  8
0
100
AcDbVertex
100
AcDb2dVertex
 10
-174.0512293071777
 20
56.33825236260254
 30
0.0
 70
    16
  0
VERTEX
  5
1C2
330
1B7
100
AcDbEntity
  8
0
100
AcDbVertex
100
AcDb2dVertex
 10
-174.0659643071777
 20
56.20915236260266
 30
0.0
 70
    16
  0
VERTEX
  5
1C3
330
1B7
100
AcDbEntity
  8
0
100
AcDbVertex
100
AcDb2dVertex
 10
-174.0765043071777
 20
56.07964436260267
 30
0.0
 70
    16
  0
VERTEX
  5
1C4
330
1B7
100
AcDbEntity
  8
0
100
AcDbVertex
100
AcDb2dVertex
 10
-174.0825663071777
 20
55.94985436260249
 30
0.0
 70
    16
  0
VERTEX
  5
1C5
330
1B7
100
AcDbEntity
  8
0
100
AcDbVertex
100
AcDb2dVertex
 10
-174.0826543071777
 20
55.86324036260267
 30
0.0
 70
    16
  0
VERTEX
  5
1C6
330
1B7
100
AcDbEntity
  8
0
100
AcDbVertex
100
AcDb2dVertex
 10
-174.0842373071777
 20
55.81996936260266
 30
0.0
 70
    16
  0
VERTEX
  5
1C7
330
1B7
100
AcDbEntity
  8
0
100
AcDbVertex
100
AcDb2dVertex
 10
-173.7842373071777
 20
57.33983836260263
 30
0.0
 70
     8
  0
VERTEX
  5
1C8
330
1B7
100
AcDbEntity
  8
0
100
AcDbVertex
100
AcDb2dVertex
 10
-173.8535843071777
 20
57.15857736260268
 30
0.0
 70
     8
  0
VERTEX
  5
1C9
330
1B7
100
AcDbEntity
  8
0
100
AcDbVertex
100
AcDb2dVertex
 10
-173.9145433071777
 20
56.97253036260254
 30
0.0
 70
     8
  0
VERTEX
  5
1CA
330
1B7
100
AcDbEntity
  8
0
100
AcDbVertex
100
AcDb2dVertex
 10
-173.9666873071777
 20
56.78234636260249
 30
0.0
 70
     8
  0
VERTEX
  5
1CB
330
1B7
100
AcDbEntity
  8
0
100
AcDbVertex
100
AcDb2dVertex
 10
-174.0096313071777
 20
56.58875336260253
 30
0.0
 70
     8
  0
VERTEX
  5
1CC
330
1B7
100
AcDbEntity
  8
0
100
AcDbVertex
100
AcDb2dVertex
 10
-174.0430393071777
 20
56.39255136260267
 30
0.0
 70
     8
  0
VERTEX
  5
1CD
330
1B7
100
AcDbEntity
  8
0
100
AcDbVertex
100
AcDb2dVertex
 10
-174.0545623071777
 20
56.30630136260261
 30
0.0
 70
     8
  0
VERTEX
  5
1CE
330
1B7
100
AcDbEntity
  8
0
100
AcDbVertex
100
AcDb2dVertex
 10
-174.0738673071777
 20
56.10780236260253
 30
0.0
 70
     8
  0
VERTEX
  5
1CF
330
1B7
100
AcDbEntity
  8
0
100
AcDbVertex
100
AcDb2dVertex
 10
-174.0794893071777
 20
56.01481636260264
 30
0.0
 70
     8
  0
VERTEX
  5
1D0
330
1B7
100
AcDbEntity
  8
0
100
AcDbVertex
100
AcDb2dVertex
 10
-174.0821973071777
 20
55.91488636260256
 30
0.0
 70
     8
  0
VERTEX
  5
1D1
330
1B7
100
AcDbEntity
  8
0
100
AcDbVertex
100
AcDb2dVertex
 10
-174.0842373071777
 20
55.81996936260266
 30
0.0
 70
     8
  0
SEQEND
  5
1D2
330
1B7
100
AcDbEntity
  8
0
  0
POLYLINE
  5
1D3
330
22
100
AcDbEntity
  8
0
  6
Continuous
100
AcDb2dPolyline
 66
     1
 10
0.0
 20
0.0
 30
0.0
 70
     4
 75
     6
  0
VERTEX
  5
1D4
330
1D3
100
AcDbEntity
  8
0
100
AcDbVertex
100
AcDb2dVertex
 10
-174.0842373071777
 20
55.81996936260266
 30
0.0
 70
    16
  0
VERTEX
  5
1D5
330
1D3
100
AcDbEntity
  8
0
100
AcDbVertex
100
AcDb2dVertex
 10
-174.0818623071777
 20
55.75505836260273
 30
0.0
 70
    16
  0
VERTEX
  5
1D6
330
1D3
100
AcDbEntity
  8
0
100
AcDbVertex
100
AcDb2dVertex
 10
-174.0822673071777
 20
55.62508836260277
 30
0.0
 70
    16
  0
VERTEX
  5
1D7
330
1D3
100
AcDbEntity
  8
0
100
AcDbVertex
100
AcDb2dVertex
 10
-174.0668113071777
 20
55.43068236260269
 30
0.0
 70
    16
  0
VERTEX
  5
1D8
330
1D3
100
AcDbEntity
  8
0
100
AcDbVertex
100
AcDb2dVertex
 10
-174.0430673071777
 20
55.23721336260265
 30
0.0
 70
    16
  0
VERTEX
  5
1D9
330
1D3
100
AcDbEntity
  8
0
100
AcDbVertex
100
AcDb2dVertex
 10
-174.0099513071777
 20
55.04512936260262
 30
0.0
 70
    16
  0
VERTEX
  5
1DA
330
1D3
100
AcDbEntity
  8
0
100
AcDbVertex
100
AcDb2dVertex
 10
-173.9675603071777
 20
54.85487436260264
 30
0.0
 70
    16
  0
VERTEX
  5
1DB
330
1D3
100
AcDbEntity
  8
0
100
AcDbVertex
100
AcDb2dVertex
 10
-173.9159933071777
 20
54.66688936260261
 30
0.0
 70
    16
  0
VERTEX
  5
1DC
330
1D3
100
AcDbEntity
  8
0
100
AcDbVertex
100
AcDb2dVertex
 10
-173.8553463071777
 20
54.48161836260279
 30
0.0
 70
    16
  0
VERTEX
  5
1DD
330
1D3
100
AcDbEntity
  8
0
100
AcDbVertex
100
AcDb2dVertex
 10
-173.8089273071777
 20
54.36020736260271
 30
0.0
 70
    16
  0
VERTEX
  5
1DE
330
1D3
100
AcDbEntity
  8
0
100
AcDbVertex
100
AcDb2dVertex
 10
-173.7842373071777
 20
54.3001013626028
 30
0.0
 70
    16
  0
VERTEX
  5
1DF
330
1D3
100
AcDbEntity
  8
0
100
AcDbVertex
100
AcDb2dVertex
 10
-174.0842373071777
 20
55.81996936260266
 30
0.0
 70
     8
  0
VERTEX
  5
1E0
330
1D3
100
AcDbEntity
  8
0
100
AcDbVertex
100
AcDb2dVertex
 10
-174.0820123071777
 20
55.71313636260261
 30
0.0
 70
     8
  0
VERTEX
  5
1E1
330
1D3
100
AcDbEntity
  8
0
100
AcDbVertex
100
AcDb2dVertex
 10
-174.0794893071777
 20
55.62512336260279
 30
0.0
 70
     8
  0
VERTEX
  5
1E2
330
1D3
100
AcDbEntity
  8
0
100
AcDbVertex
100
AcDb2dVertex
 10
-174.0651463071777
 20
55.4299483626025
 30
0.0
 70
     8
  0
VERTEX
  5
1E3
330
1D3
100
AcDbEntity
  8
0
100
AcDbVertex
100
AcDb2dVertex
 10
-174.0411383071777
 20
55.23495736260265
 30
0.0
 70
     8
  0
VERTEX
  5
1E4
330
1D3
100
AcDbEntity
  8
0
100
AcDbVertex
100
AcDb2dVertex
 10
-174.0074693071777
 20
55.04070736260264
 30
0.0
 70
     8
  0
VERTEX
  5
1E5
330
1D3
100
AcDbEntity
  8
0
100
AcDbVertex
100
AcDb2dVertex
 10
-173.9641633071777
 20
54.84776636260263
 30
0.0
 70
     8
  0
VERTEX
  5
1E6
330
1D3
100
AcDbEntity
  8
0
100
AcDbVertex
100
AcDb2dVertex
 10
-173.9112683071777
 20
54.65671436260272
 30
0.0
 70
     8
  0
VERTEX
  5
1E7
330
1D3
100
AcDbEntity
  8
0
100
AcDbVertex
100
AcDb2dVertex
 10
-173.8488533071777
 20
54.46813836260272
 30
0.0
 70
     8
  0
VERTEX
  5
1E8
330
1D3
100
AcDbEntity
  8
0
100
AcDbVertex
100
AcDb2dVertex
 10
-173.7842373071777
 20
54.3001013626028
 30
0.0
 70
     8
  0
SEQEND
  5
1E9
330
1D3
100
AcDbEntity
  8
0
  0
LINE
  5
1EA
330
22
100
AcDbEntity
  8
0
  6
Continuous
100
AcDbLine
 10
-173.7842373071777
 20
54.30010136260282
 30
0.0
 11
-173.7842373071777
 21
25.90377936260277
 31
0.0
  0
LINE
  5
1EB
330
22
100
AcDbEntity
  8
0
  6
Continuous
100
AcDbLine
 10
-172.7842373071777
 20
25.8304423626025
 30
0.0
 11
-172.7842373071777
 21
85.80949636260262
 31
0.0
  0
LINE
  5
1EC
330
22
100
AcDbEntity
  8
0
  6
Continuous
100
AcDbLine
 10
-156.3842373071777
 20
94.53168236260259
 30
0.0
 11
-156.3842373071777
 21
95.50945036260257
 31
0.0
  0
LINE
  5
1ED
330
22
100
AcDbEntity
  8
0
  6
Continuous
100
AcDbLine
 10
-156.6894733071777
 20
95.80940536260252
 30
0.0
 11
-169.4448903071777
 21
95.58675836260269
 31
0.0
  0
LINE
  5
1EE
330
22
100
AcDbEntity
  8
0
  6
Continuous
100
AcDbLine
 10
-162.7842373071777
 20
94.41996936260258
 30
0.0
 11
-161.0451333071777
 21
94.4503253626028
 31
0.0
  0
LINE
  5
1EF
330
22
100
AcDbEntity
  8
0
  6
Continuous
100
AcDbLine
 10
-162.7842373071777
 20
94.41996936260258
 30
0.0
 11
-162.7842373071777
 21
93.81996936260268
 31
0.0
  0
LINE
  5
1F0
330
22
100
AcDbEntity
  8
0
  6
CENTER
 62
     1
100
AcDbLine
 10
-181.8358093071777
 20
55.81996936260267
 30
0.0
 11
-147.9003063071777
 21
55.81996936260267
 31
0.0
  0
LINE
  5
1F1
330
22
100
AcDbEntity
  8
0
  6
Continuous
100
AcDbLine
 10
-172.7842373071777
 20
85.80949636260262
 30
0.0
 11
-172.1842373071777
 21
85.81996936260267
 31
0.0
  0
ARC
  5
1F2
330
22
100
AcDbEntity
  8
0
  6
Continuous
100
AcDbCircle
 10
-156.6842373071777
 20
16.13048836260279
 30
0.0
 40
0.3
100
AcDbArc
 50
269.0
 51
0.0
  0
ARC
  5
1F3
330
22
100
AcDbEntity
  8
0
  6
Continuous
100
AcDbCircle
 10
-156.6842373071777
 20
95.50945036260255
 30
0.0
 40
0.3
100
AcDbArc
 50
0.0
 51
91.0
  0
CIRCLE
  5
1F4
330
22
100
AcDbEntity
  8
0
  6
Continuous
100
AcDbCircle
 10
-162.7842373071777
 20
94.41996936260258
 30
0.0
 40
0.1
  0
CIRCLE
  5
1F5
330
22
100
AcDbEntity
  8
0
  6
Continuous
100
AcDbCircle
 10
-162.7842373071777
 20
94.41996936260258
 30
0.0
 40
0.05
  0
LINE
  5
1F6
330
22
100
AcDbEntity
  8
0
  6
Continuous
100
AcDbLine
 10
-169.8032433071777
 20
93.69745236260266
 30
0.0
 11
-162.7842373071777
 21
93.81996936260268
 31
0.0
  0
CIRCLE
  5
1F7
330
22
100
AcDbEntity
  8
0
  6
Continuous
100
AcDbCircle
 10
-172.1842373071777
 20
85.81996936260265
 30
0.0
 40
0.1
  0
CIRCLE
  5
1F8
330
22
100
AcDbEntity
  8
0
  6
Continuous
100
AcDbCircle
 10
-172.1842373071777
 20
85.81996936260265
 30
0.0
 40
0.05
  0
CIRCLE
  5
1F9
330
22
100
AcDbEntity
  8
0
  6
Continuous
100
AcDbCircle
 10
-162.7842373071777
 20
93.81996936260266
 30
0.0
 40
0.05
  0
CIRCLE
  5
1FA
330
22
100
AcDbEntity
  8
0
  6
Continuous
100
AcDbCircle
 10
-162.7842373071777
 20
93.81996936260266
 30
0.0
 40
0.1
  0
LINE
  5
1FB
330
22
100
AcDbEntity
  8
0
  6
Continuous
100
AcDbLine
 10
-156.3842373071777
 20
17.10825736260264
 30
0.0
 11
-156.3842373071777
 21
16.13048836260279
 31
0.0
  0
LINE
  5
1FC
330
22
100
AcDbEntity
  8
0
  6
Continuous
100
AcDbLine
 10
-156.6894733071777
 20
15.83053436260272
 30
0.0
 11
-169.4448903071777
 21
16.05318036260266
 31
0.0
  0
LINE
  5
1FD
330
22
100
AcDbEntity
  8
0
  6
Continuous
100
AcDbLine
 10
-162.7842373071777
 20
17.21996936260277
 30
0.0
 11
-161.0451333071777
 21
17.18961336260256
 31
0.0
  0
LINE
  5
1FE
330
22
100
AcDbEntity
  8
0
  6
Continuous
100
AcDbLine
 10
-159.5213743071777
 20
94.47692336260272
 30
0.0
 11
-156.3842373071777
 21
94.53168236260259
 31
0.0
  0
LINE
  5
1FF
330
22
100
AcDbEntity
  8
0
  6
Continuous
100
AcDbLine
 10
-162.7842373071777
 20
17.21996936260277
 30
0.0
 11
-162.7842373071777
 21
17.81996936260268
 31
0.0
  0
LINE
  5
200
330
22
100
AcDbEntity
  8
0
  6
Continuous
100
AcDbLine
 10
-159.5213743071777
 20
17.16301636260252
 30
0.0
 11
-156.3842373071777
 21
17.10825736260264
 31
0.0
  0
LINE
  5
201
330
22
100
AcDbEntity
  8
0
  6
Continuous
100
AcDbLine
 10
-172.7842373071777
 20
25.8304423626025
 30
0.0
 11
-172.1842373071777
 21
25.81996936260268
 31
0.0
  0
CIRCLE
  5
202
330
22
100
AcDbEntity
  8
0
  6
Continuous
100
AcDbCircle
 10
-162.7842373071777
 20
17.21996936260277
 30
0.0
 40
0.1
  0
CIRCLE
  5
203
330
22
100
AcDbEntity
  8
0
  6
Continuous
100
AcDbCircle
 10
-162.7842373071777
 20
17.21996936260277
 30
0.0
 40
0.05
  0
LINE
  5
204
330
22
100
AcDbEntity
  8
0
  6
Continuous
100
AcDbLine
 10
-169.8032433071777
 20
17.94248636260269
 30
0.0
 11
-162.7842373071777
 21
17.81996936260268
 31
0.0
  0
CIRCLE
  5
205
330
22
100
AcDbEntity
  8
0
  6
Continuous
100
AcDbCircle
 10
-172.1842373071777
 20
25.81996936260268
 30
0.0
 40
0.1
  0
CIRCLE
  5
206
330
22
100
AcDbEntity
  8
0
  6
Continuous
100
AcDbCircle
 10
-172.1842373071777
 20
25.81996936260268
 30
0.0
 40
0.05
  0
CIRCLE
  5
207
330
22
100
AcDbEntity
  8
0
  6
Continuous
100
AcDbCircle
 10
-162.7842373071777
 20
17.81996936260268
 30
0.0
 40
0.05
  0
CIRCLE
  5
208
330
22
100
AcDbEntity
  8
0
  6
Continuous
100
AcDbCircle
 10
-162.7842373071777
 20
17.81996936260268
 30
0.0
 40
0.1
  0
LINE
  5
209
330
22
100
AcDbEntity
  8
0
  6
DASHED
100
AcDbLine
 10
-160.7842373071777
 20
94.31996936260267
 30
0.0
 11
-159.7842373071777
 21
94.30251436260252
 31
0.0
  0
LINE
  5
20A
330
22
100
AcDbEntity
  8
0
  6
Continuous
100
AcDbLine
 10
-162.5842373071777
 20
59.81996936260268
 30
0.0
 11
-162.5842373071777
 21
51.81996936260268
 31
0.0
  0
LINE
  5
20B
330
22
100
AcDbEntity
  8
0
  6
Continuous
100
AcDbLine
 10
-160.7842373071777
 20
19.31996936260268
 30
0.0
 11
-160.7842373071777
 21
17.11996936260263
 31
0.0
  0
LINE
  5
20C
330
22
100
AcDbEntity
  8
0
  6
Continuous
100
AcDbLine
 10
-159.7842373071777
 20
17.11996936260263
 30
0.0
 11
-159.7842373071777
 21
17.81996936260268
 31
0.0
  0
LINE
  5
20D
330
22
100
AcDbEntity
  8
0
  6
Continuous
100
AcDbLine
 10
-161.5842373071777
 20
60.81996936260267
 30
0.0
 11
-157.5842403071777
 21
60.81996936260267
 31
0.0
  0
LINE
  5
20E
330
22
100
AcDbEntity
  8
0
  6
Continuous
100
AcDbLine
 10
-161.5842373071777
 20
50.81996936260267
 30
0.0
 11
-157.5842403071777
 21
50.81996936260267
 31
0.0
  0
LINE
  5
20F
330
22
100
AcDbEntity
  8
0
  6
Continuous
100
AcDbLine
 10
-162.5842373071777
 20
59.81996936260268
 30
0.0
 11
-161.5842373071777
 21
60.81996936260267
 31
0.0
  0
LINE
  5
210
330
22
100
AcDbEntity
  8
0
  6
Continuous
100
AcDbLine
 10
-162.5842373071777
 20
51.81996936260268
 30
0.0
 11
-161.5842373071777
 21
50.81996936260267
 31
0.0
  0
LINE
  5
211
330
22
100
AcDbEntity
  8
0
  6
Continuous
100
AcDbLine
 10
-159.7842373071777
 20
93.81996936260268
 30
0.0
 11
-159.7842373071777
 21
94.51996936260249
 31
0.0
  0
LINE
  5
212
330
22
100
AcDbEntity
  8
0
  6
Continuous
100
AcDbLine
 10
-160.7842373071777
 20
94.51996936260249
 30
0.0
 11
-160.7842373071777
 21
92.31996936260268
 31
0.0
  0
LINE
  5
213
330
22
100
AcDbEntity
  8
0
  6
Continuous
100
AcDbLine
 10
-160.7842373071777
 20
19.31996936260268
 30
0.0
 11
-158.0842373071777
 21
19.31996936260268
 31
0.0
  0
LINE
  5
214
330
22
100
AcDbEntity
  8
0
  6
Continuous
100
AcDbLine
 10
-160.7842373071777
 20
92.31996936260268
 30
0.0
 11
-158.0842373071777
 21
92.31996936260268
 31
0.0
  0
LINE
  5
215
330
22
100
AcDbEntity
  8
0
  6
Continuous
100
AcDbLine
 10
-156.0842373071777
 20
92.25538536260271
 30
0.0
 11
-156.0842373071777
 21
19.38455336260264
 31
0.0
  0
LINE
  5
216
330
22
100
AcDbEntity
  8
0
  6
Continuous
100
AcDbLine
 10
-157.5842373071777
 20
91.81996936260267
 30
0.0
 11
-157.5842373071777
 21
60.81996936260267
 31
0.0
  0
LINE
  5
217
330
22
100
AcDbEntity
  8
0
  6
Continuous
100
AcDbLine
 10
-159.7842373071777
 20
93.81996936260268
 30
0.0
 11
-157.5840093071777
 21
93.78156436260267
 31
0.0
  0
LINE
  5
218
330
22
100
AcDbEntity
  8
0
  6
DASHED
100
AcDbLine
 10
-160.7842373071777
 20
17.31996936260268
 30
0.0
 11
-159.7842373071777
 21
17.3374243626026
 31
0.0
  0
LINE
  5
219
330
22
100
AcDbEntity
  8
0
  6
Continuous
100
AcDbLine
 10
-159.7842373071777
 20
17.81996936260268
 30
0.0
 11
-157.5840093071777
 21
17.85837436260269
 31
0.0
  0
LINE
  5
21A
330
22
100
AcDbEntity
  8
0
  6
Continuous
100
AcDbLine
 10
-158.0842373071777
 20
92.31996936260268
 30
0.0
 11
-157.5842373071777
 21
91.81996936260267
 31
0.0
  0
LINE
  5
21B
330
22
100
AcDbEntity
  8
0
  6
Continuous
100
AcDbLine
 10
-158.0842373071777
 20
19.31996936260268
 30
0.0
 11
-157.5842373071777
 21
19.81996936260268
 31
0.0
  0
CIRCLE
  5
21C
330
22
100
AcDbEntity
  8
0
  6
Continuous
100
AcDbCircle
 10
-160.7842373071777
 20
17.31996936260268
 30
0.0
 40
0.05
  0
CIRCLE
  5
21D
330
22
100
AcDbEntity
  8
0
  6
Continuous
100
AcDbCircle
 10
-160.7842373071777
 20
17.31996936260268
 30
0.0
 40
0.1
  0
CIRCLE
  5
21E
330
22
100
AcDbEntity
  8
0
  6
Continuous
100
AcDbCircle
 10
-160.7842373071777
 20
17.31996936260268
 30
0.0
 40
0.15
  0
CIRCLE
  5
21F
330
22
100
AcDbEntity
  8
0
  6
Continuous
100
AcDbCircle
 10
-160.7842373071777
 20
94.31996936260267
 30
0.0
 40
0.15
  0
CIRCLE
  5
220
330
22
100
AcDbEntity
  8
0
  6
Continuous
100
AcDbCircle
 10
-160.7842373071777
 20
94.31996936260267
 30
0.0
 40
0.1
  0
CIRCLE
  5
221
330
22
100
AcDbEntity
  8
0
  6
Continuous
100
AcDbCircle
 10
-160.7842373071777
 20
94.31996936260267
 30
0.0
 40
0.05
  0
CIRCLE
  5
222
330
22
100
AcDbEntity
  8
0
  6
Continuous
100
AcDbCircle
 10
-159.7842373071777
 20
93.81996936260266
 30
0.0
 40
0.05
  0
CIRCLE
  5
223
330
22
100
AcDbEntity
  8
0
  6
Continuous
100
AcDbCircle
 10
-159.7842373071777
 20
93.81996936260266
 30
0.0
 40
0.1
  0
CIRCLE
  5
224
330
22
100
AcDbEntity
  8
0
  6
Continuous
100
AcDbCircle
 10
-159.7842373071777
 20
93.81996936260266
 30
0.0
 40
0.15
  0
CIRCLE
  5
225
330
22
100
AcDbEntity
  8
0
  6
Continuous
100
AcDbCircle
 10
-159.7842373071777
 20
17.81996936260268
 30
0.0
 40
0.15
  0
CIRCLE
  5
226
330
22
100
AcDbEntity
  8
0
  6
Continuous
100
AcDbCircle
 10
-159.7842373071777
 20
17.81996936260268
 30
0.0
 40
0.1
  0
CIRCLE
  5
227
330
22
100
AcDbEntity
  8
0
  6
Continuous
100
AcDbCircle
 10
-159.7842373071777
 20
17.81996936260268
 30
0.0
 40
0.05
  0
LINE
  5
228
330
22
100
AcDbEntity
  8
0
  6
Continuous
100
AcDbLine
 10
-157.5842373071777
 20
50.81996936260267
 30
0.0
 11
-157.5842373071777
 21
19.81996936260268
 31
0.0
  0
LINE
  5
229
330
22
100
AcDbEntity
  8
0
  6
Continuous
100
AcDbLine
 10
-157.5840093071777
 20
93.78156436260267
 30
0.0
 11
-156.0842373071777
 21
92.25538536260271
 31
0.0
  0
LINE
  5
22A
330
22
100
AcDbEntity
  8
0
  6
Continuous
100
AcDbLine
 10
-157.5840093071777
 20
17.85837436260269
 30
0.0
 11
-156.0842373071777
 21
19.38455336260264
 31
0.0
  0
LINE
  5
22B
330
22
100
AcDbEntity
  8
0
  6
Continuous
100
AcDbLine
 10
-172.7842373071777
 20
85.71996936260276
 30
0.0
 11
-162.7842373071777
 21
85.8945203626026
 31
0.0
  0
LINE
  5
22C
330
22
100
AcDbEntity
  8
0
  6
Continuous
100
AcDbLine
 10
-170.0842373071777
 20
78.81996936260268
 30
0.0
 11
-170.0842373071777
 21
84.81996936260268
 31
0.0
  0
LINE
  5
22D
330
22
100
AcDbEntity
  8
0
  6
Continuous
100
AcDbLine
 10
-172.7842373071777
 20
84.86709836260272
 30
0.0
 11
-172.7842373071777
 21
85.71996936260276
 31
0.0
  0
LINE
  5
22E
330
22
100
AcDbEntity
  8
0
  6
Continuous
100
AcDbLine
 10
-170.0842373071777
 20
32.81996936260268
 30
0.0
 11
-168.8842373071777
 21
32.81996936260268
 31
0.0
  0
LINE
  5
22F
330
22
100
AcDbEntity
  8
0
  6
Continuous
100
AcDbLine
 10
-161.7842373071777
 20
84.28579236260267
 30
0.0
 11
-161.7842373071777
 21
27.35414636260268
 31
0.0
  0
LINE
  5
230
330
22
100
AcDbEntity
  8
0
  6
Continuous
100
AcDbLine
 10
-168.8842373071777
 20
78.81996936260268
 30
0.0
 11
-168.8842373071777
 21
84.39603836260264
 31
0.0
  0
LINE
  5
231
330
22
100
AcDbEntity
  8
0
  6
Continuous
100
AcDbLine
 10
-170.0842373071777
 20
32.81996936260268
 30
0.0
 11
-170.0842373071777
 21
78.81996936260268
 31
0.0
  0
LINE
  5
232
330
22
100
AcDbEntity
  8
0
  6
Continuous
100
AcDbLine
 10
-168.8842373071777
 20
32.81996936260268
 30
0.0
 11
-168.8842373071777
 21
78.81996936260268
 31
0.0
  0
CIRCLE
  5
233
330
22
100
AcDbEntity
  8
0
  6
Continuous
100
AcDbCircle
 10
-161.7842373071777
 20
84.51996936260249
 30
0.0
 40
0.1
  0
CIRCLE
  5
234
330
22
100
AcDbEntity
  8
0
  6
Continuous
100
AcDbCircle
 10
-170.0842373071777
 20
26.81996936260268
 30
0.0
 40
0.1
  0
CIRCLE
  5
235
330
22
100
AcDbEntity
  8
0
  6
Continuous
100
AcDbCircle
 10
-170.0842373071777
 20
26.81996936260268
 30
0.0
 40
0.15
  0
CIRCLE
  5
236
330
22
100
AcDbEntity
  8
0
  6
Continuous
100
AcDbCircle
 10
-170.0842373071777
 20
84.81996936260266
 30
0.0
 40
0.1
  0
CIRCLE
  5
237
330
22
100
AcDbEntity
  8
0
  6
Continuous
100
AcDbCircle
 10
-170.0842373071777
 20
84.81996936260266
 30
0.0
 40
0.15
  0
CIRCLE
  5
238
330
22
100
AcDbEntity
  8
0
  6
Continuous
100
AcDbCircle
 10
-172.7842373071777
 20
25.91996936260259
 30
0.0
 40
0.15
  0
CIRCLE
  5
239
330
22
100
AcDbEntity
  8
0
  6
Continuous
100
AcDbCircle
 10
-172.7842373071777
 20
25.91996936260259
 30
0.0
 40
0.1
  0
CIRCLE
  5
23A
330
22
100
AcDbEntity
  8
0
  6
Continuous
100
AcDbCircle
 10
-161.7842373071777
 20
27.11996936260263
 30
0.0
 40
0.1
  0
CIRCLE
  5
23B
330
22
100
AcDbEntity
  8
0
  6
Continuous
100
AcDbCircle
 10
-161.7842373071777
 20
27.11996936260263
 30
0.0
 40
0.15
  0
LINE
  5
23C
330
22
100
AcDbEntity
  8
0
  6
Continuous
100
AcDbLine
 10
-172.7842373071777
 20
25.91996936260259
 30
0.0
 11
-172.7842373071777
 21
26.77284136260252
 31
0.0
  0
LINE
  5
23D
330
22
100
AcDbEntity
  8
0
  6
Continuous
100
AcDbLine
 10
-170.0842373071777
 20
78.81996936260268
 30
0.0
 11
-168.8842373071777
 21
78.81996936260268
 31
0.0
  0
LINE
  5
23E
330
22
100
AcDbEntity
  8
0
  6
Continuous
100
AcDbLine
 10
-172.7842373071777
 20
26.77284136260252
 30
0.0
 11
-170.0842373071777
 21
26.81996936260268
 31
0.0
  0
LINE
  5
23F
330
22
100
AcDbEntity
  8
0
  6
Continuous
100
AcDbLine
 10
-172.7842373071777
 20
84.86709836260272
 30
0.0
 11
-170.0842373071777
 21
84.81996936260268
 31
0.0
  0
CIRCLE
  5
240
330
22
100
AcDbEntity
  8
0
  6
Continuous
100
AcDbCircle
 10
-161.7842373071777
 20
84.51996936260249
 30
0.0
 40
0.15
  0
LINE
  5
241
330
22
100
AcDbEntity
  8
0
  6
Continuous
100
AcDbLine
 10
-172.7842373071777
 20
26.77284136260252
 30
0.0
 11
-172.7842373071777
 21
84.86709836260272
 31
0.0
  0
CIRCLE
  5
242
330
22
100
AcDbEntity
  8
0
  6
Continuous
100
AcDbCircle
 10
-172.7842373071777
 20
85.71996936260275
 30
0.0
 40
0.1
  0
LINE
  5
243
330
22
100
AcDbEntity
  8
0
  6
Continuous
100
AcDbLine
 10
-161.7842373071777
 20
84.51996936260249
 30
0.0
 11
-161.7842373071777
 21
27.11996936260263
 31
0.0
  0
LINE
  5
244
330
22
100
AcDbEntity
  8
0
  6
Continuous
100
AcDbLine
 10
-168.8842373071777
 20
84.39603836260264
 30
0.0
 11
-161.7842373071777
 21
84.51996936260249
 31
0.0
  0
LINE
  5
245
330
22
100
AcDbEntity
  8
0
  6
Continuous
100
AcDbLine
 10
-168.8842373071777
 20
27.24390036260272
 30
0.0
 11
-161.7842373071777
 21
27.11996936260263
 31
0.0
  0
CIRCLE
  5
246
330
22
100
AcDbEntity
  8
0
  6
Continuous
100
AcDbCircle
 10
-172.7842373071777
 20
85.71996936260275
 30
0.0
 40
0.15
  0
CIRCLE
  5
247
330
22
100
AcDbEntity
  8
0
  6
Continuous
100
AcDbCircle
 10
-172.7842373071777
 20
25.91996936260259
 30
0.0
 40
0.2
  0
CIRCLE
  5
248
330
22
100
AcDbEntity
  8
0
  6
Continuous
100
AcDbCircle
 10
-170.0842373071777
 20
26.81996936260268
 30
0.0
 40
0.2
  0
CIRCLE
  5
249
330
22
100
AcDbEntity
  8
0
  6
Continuous
100
AcDbCircle
 10
-161.7842373071777
 20
27.11996936260263
 30
0.0
 40
0.2
  0
CIRCLE
  5
24A
330
22
100
AcDbEntity
  8
0
  6
Continuous
100
AcDbCircle
 10
-161.7842373071777
 20
84.51996936260249
 30
0.0
 40
0.2
  0
CIRCLE
  5
24B
330
22
100
AcDbEntity
  8
0
  6
Continuous
100
AcDbCircle
 10
-170.0842373071777
 20
84.81996936260266
 30
0.0
 40
0.2
  0
CIRCLE
  5
24C
330
22
100
AcDbEntity
  8
0
  6
Continuous
100
AcDbCircle
 10
-172.7842373071777
 20
85.71996936260275
 30
0.0
 40
0.2
  0
LINE
  5
24D
330
22
100
AcDbEntity
  8
0
  6
Continuous
100
AcDbLine
 10
-170.0842373071777
 20
26.81996936260268
 30
0.0
 11
-170.0842373071777
 21
32.81996936260268
 31
0.0
  0
LINE
  5
24E
330
22
100
AcDbEntity
  8
0
  6
Continuous
100
AcDbLine
 10
-168.8842373071777
 20
27.24390036260272
 30
0.0
 11
-168.8842373071777
 21
32.81996936260268
 31
0.0
  0
LINE
  5
24F
330
22
100
AcDbEntity
  8
0
  6
Continuous
100
AcDbLine
 10
-162.7842373071777
 20
17.41996936260258
 30
0.0
 11
-161.7842373071777
 21
17.41996936260258
 31
0.0
  0
LINE
  5
250
330
22
100
AcDbEntity
  8
0
  6
Continuous
100
AcDbLine
 10
-162.7842373071777
 20
94.21996936260276
 30
0.0
 11
-161.7842373071777
 21
94.21996936260276
 31
0.0
  0
LINE
  5
251
330
22
100
AcDbEntity
  8
0
  6
Continuous
100
AcDbLine
 10
-162.7842373071777
 20
17.41996936260258
 30
0.0
 11
-162.7842373071777
 21
18.56996936260268
 31
0.0
  0
LINE
  5
252
330
22
100
AcDbEntity
  8
0
  6
Continuous
100
AcDbLine
 10
-161.7842373071777
 20
27.11996936260263
 30
0.0
 11
-161.7842373071777
 21
25.06996936260268
 31
0.0
  0
LINE
  5
253
330
22
100
AcDbEntity
  8
0
  6
Continuous
100
AcDbLine
 10
-161.7842373071777
 20
84.51996936260249
 30
0.0
 11
-161.7842373071777
 21
86.56996936260268
 31
0.0
  0
LINE
  5
254
330
22
100
AcDbEntity
  8
0
  6
Continuous
100
AcDbLine
 10
-162.7842373071777
 20
85.8945203626026
 30
0.0
 11
-162.7842373071777
 21
86.56996936260268
 31
0.0
  0
LINE
  5
255
330
22
100
AcDbEntity
  8
0
  6
Continuous
100
AcDbLine
 10
-162.7842373071777
 20
25.06996936260268
 30
0.0
 11
-161.7842373071777
 21
25.06996936260268
 31
0.0
  0
LINE
  5
256
330
22
100
AcDbEntity
  8
0
  6
Continuous
100
AcDbLine
 10
-162.7842373071777
 20
18.56996936260268
 30
0.0
 11
-161.7842373071777
 21
18.56996936260268
 31
0.0
  0
LINE
  5
257
330
22
100
AcDbEntity
  8
0
  6
Continuous
100
AcDbLine
 10
-162.7842373071777
 20
18.56996936260268
 30
0.0
 11
-162.7842373071777
 21
25.06996936260268
 31
0.0
  0
LINE
  5
258
330
22
100
AcDbEntity
  8
0
  6
Continuous
100
AcDbLine
 10
-162.7842373071777
 20
25.06996936260268
 30
0.0
 11
-162.7842373071777
 21
25.74541936260263
 31
0.0
  0
LINE
  5
259
330
22
100
AcDbEntity
  8
0
  6
Continuous
100
AcDbLine
 10
-161.7842373071777
 20
18.56996936260268
 30
0.0
 11
-161.7842373071777
 21
17.41996936260258
 31
0.0
  0
LINE
  5
25A
330
22
100
AcDbEntity
  8
0
  6
Continuous
100
AcDbLine
 10
-161.7842373071777
 20
25.06996936260268
 30
0.0
 11
-161.7842373071777
 21
18.56996936260268
 31
0.0
  0
LINE
  5
25B
330
22
100
AcDbEntity
  8
0
  6
Continuous
100
AcDbLine
 10
-162.7842373071777
 20
93.06996936260267
 30
0.0
 11
-161.7842373071777
 21
93.06996936260267
 31
0.0
  0
LINE
  5
25C
330
22
100
AcDbEntity
  8
0
  6
Continuous
100
AcDbLine
 10
-162.7842373071777
 20
86.56996936260268
 30
0.0
 11
-161.7842373071777
 21
86.56996936260268
 31
0.0
  0
LINE
  5
25D
330
22
100
AcDbEntity
  8
0
  6
Continuous
100
AcDbLine
 10
-162.7842373071777
 20
86.56996936260268
 30
0.0
 11
-162.7842373071777
 21
93.06996936260267
 31
0.0
  0
LINE
  5
25E
330
22
100
AcDbEntity
  8
0
  6
Continuous
100
AcDbLine
 10
-162.7842373071777
 20
93.06996936260267
 30
0.0
 11
-162.7842373071777
 21
94.21996936260276
 31
0.0
  0
LINE
  5
25F
330
22
100
AcDbEntity
  8
0
  6
Continuous
100
AcDbLine
 10
-161.7842373071777
 20
86.56996936260268
 30
0.0
 11
-161.7842373071777
 21
93.06996936260267
 31
0.0
  0
LINE
  5
260
330
22
100
AcDbEntity
  8
0
  6
Continuous
100
AcDbLine
 10
-161.7842373071777
 20
93.06996936260267
 30
0.0
 11
-161.7842373071777
 21
94.21996936260276
 31
0.0
  0
LINE
  5
261
330
22
100
AcDbEntity
  8
0
  6
DASHDOT
100
AcDbLine
 10
-165.9750123071777
 20
21.81996936260268
 30
0.0
 11
-158.2733743071777
 21
21.81996936260268
 31
0.0
  0
LINE
  5
262
330
22
100
AcDbEntity
  8
0
  6
DASHDOT
100
AcDbLine
 10
-165.9750123071777
 20
89.81996936260268
 30
0.0
 11
-158.2733743071777
 21
89.81996936260268
 31
0.0
  0
LINE
  5
263
330
22
100
AcDbEntity
  8
0
  6
Continuous
100
AcDbLine
 10
-172.7842373071777
 20
25.91996936260259
 30
0.0
 11
-162.7842373071777
 21
25.74541936260263
 31
0.0
  0
LINE
  5
264
330
22
100
AcDbEntity
  8
0
  6
Continuous
100
AcDbLine
 10
-160.7842373071777
 20
94.31996936260267
 30
0.0
 11
-160.7842373071777
 21
55.81996936260267
 31
0.0
  0
LINE
  5
265
330
22
100
AcDbEntity
  8
0
  6
Continuous
100
AcDbLine
 10
-161.7842373071777
 20
94.31996936260267
 30
0.0
 11
-161.7842373071777
 21
55.81996936260267
 31
0.0
  0
LINE
  5
266
330
22
100
AcDbEntity
  8
0
  6
Continuous
100
AcDbLine
 10
-161.7842373071777
 20
55.81996936260267
 30
0.0
 11
-161.7842373071777
 21
17.31996936260268
 31
0.0
  0
LINE
  5
267
330
22
100
AcDbEntity
  8
0
  6
Continuous
100
AcDbLine
 10
-160.7842373071777
 20
55.81996936260267
 30
0.0
 11
-160.7842373071777
 21
17.31996936260268
 31
0.0
  0
LINE
  5
268
330
22
100
AcDbEntity
  8
0
  6
DASHED
100
AcDbLine
 10
-161.7842373071777
 20
80.81996936260267
 30
0.0
 11
-160.7842373071777
 21
80.81996936260267
 31
0.0
  0
LINE
  5
269
330
22
100
AcDbEntity
  8
0
  6
DASHED
100
AcDbLine
 10
-161.7842373071777
 20
78.81996936260268
 30
0.0
 11
-160.7842373071777
 21
78.81996936260268
 31
0.0
  0
LINE
  5
26A
330
22
100
AcDbEntity
  8
0
  6
DASHED
100
AcDbLine
 10
-161.7842373071777
 20
61.31996936260268
 30
0.0
 11
-160.7842373071777
 21
61.31996936260268
 31
0.0
  0
LINE
  5
26B
330
22
100
AcDbEntity
  8
0
  6
DASHED
100
AcDbLine
 10
-161.7842373071777
 20
50.31996936260267
 30
0.0
 11
-160.7842373071777
 21
50.31996936260267
 31
0.0
  0
LINE
  5
26C
330
22
100
AcDbEntity
  8
0
  6
DASHDOT
100
AcDbLine
 10
-164.4812753071777
 20
79.81996936260268
 30
0.0
 11
-157.4852153071777
 21
79.81996936260268
 31
0.0
  0
LINE
  5
26D
330
22
100
AcDbEntity
  8
0
  6
Continuous
100
AcDbLine
 10
-161.7842373071777
 20
37.31996936260268
 30
0.0
 11
-161.7842373071777
 21
74.31996936260268
 31
0.0
  0
LINE
  5
26E
330
22
100
AcDbEntity
  8
0
  6
Continuous
100
AcDbLine
 10
-161.7842373071777
 20
74.31996936260268
 30
0.0
 11
-161.7842373071777
 21
37.31996936260268
 31
0.0
  0
LINE
  5
26F
330
22
100
AcDbEntity
  8
0
  6
Continuous
100
AcDbLine
 10
-161.7842373071777
 20
74.31996936260268
 30
0.0
 11
-161.7842373071777
 21
37.31996936260268
 31
0.0
  0
LINE
  5
270
330
22
100
AcDbEntity
  8
0
  6
Continuous
100
AcDbLine
 10
-161.7842373071777
 20
37.31996936260268
 30
0.0
 11
-161.7842373071777
 21
74.31996936260268
 31
0.0
  0
LINE
  5
271
330
22
100
AcDbEntity
  8
0
  6
Continuous
100
AcDbLine
 10
-161.7842373071777
 20
17.31996936260268
 30
0.0
 11
-160.7842373071777
 21
17.31996936260268
 31
0.0
  0
LINE
  5
272
330
22
100
AcDbEntity
  8
0
  6
Continuous
100
AcDbLine
 10
-161.7842373071777
 20
94.31996936260267
 30
0.0
 11
-160.7842373071777
 21
94.31996936260267
 31
0.0
  0
LINE
  5
2279
330
22
100
AcDbEntity
  8
8
  6
CENTER
 62
     1
100
AcDbLine
 10
-338.0948277309924
 20
55.81996936260267
 30
0.0
 11
-230.115956588639
 21
55.81996936260267
 31
0.0
  0
LINE
  5
227A
330
22
100
AcDbEntity
  8
8
  6
CENTER
 62
     1
100
AcDbLine
 10
-284.1053921598156
 20
1.830533791425949
 30
0.0
 11
-284.1053921598156
 21
109.8094049337793
 31
0.0
  0
CIRCLE
  5
227B
330
22
100
AcDbEntity
  8
0
  6
DASHED
100
AcDbCircle
 10
-284.1053921598156
 20
55.81996936260267
 30
0.0
 40
2.0
  0
ARC
  5
227C
330
22
100
AcDbEntity
  8
0
  6
Continuous
100
AcDbCircle
 10
-284.1053921598156
 20
55.81996936260267
 30
0.0
 40
1.519868415357033
100
AcDbArc
 50
270.0
 51
90.0
  0
ARC
  5
227D
330
22
100
AcDbEntity
  8
0
  6
Continuous
100
AcDbCircle
 10
-284.1053921598156
 20
55.81996936260267
 30
0.0
 40
1.519868415357033
100
AcDbArc
 50
90.0
 51
270.0
  0
CIRCLE
  5
227E
330
22
100
AcDbEntity
  8
0
100
AcDbCircle
 10
-284.1053921598156
 20
89.81996936260268
 30
0.0
 40
2.7
  0
CIRCLE
  5
227F
330
22
100
AcDbEntity
  8
0
100
AcDbCircle
 10
-271.0941551598157
 20
87.23187336260272
 30
0.0
 40
2.7
  0
CIRCLE
  5
2280
330
22
100
AcDbEntity
  8
0
100
AcDbCircle
 10
-260.0637616598157
 20
79.86159986260273
 30
0.0
 40
2.7
  0
CIRCLE
  5
2281
330
22
100
AcDbEntity
  8
0
100
AcDbCircle
 10
-297.1166286598156
 20
87.23187336260272
 30
0.0
 40
2.7
  0
CIRCLE
  5
2282
330
22
100
AcDbEntity
  8
0
100
AcDbCircle
 10
-308.1470226598157
 20
79.86159986260273
 30
0.0
 40
2.7
  0
CIRCLE
  5
2283
330
22
100
AcDbEntity
  8
0
100
AcDbCircle
 10
-315.4401597916221
 20
69.0158906059527
 30
0.0
 40
2.7
  0
CIRCLE
  5
2284
330
22
100
AcDbEntity
  8
0
100
AcDbCircle
 10
-318.1053921598157
 20
55.81996936260267
 30
0.0
 40
2.7
  0
CIRCLE
  5
2285
330
22
100
AcDbEntity
  8
0
100
AcDbCircle
 10
-315.5172961598156
 20
42.80873236260274
 30
0.0
 40
2.7
  0
CIRCLE
  5
2286
330
22
100
AcDbEntity
  8
0
100
AcDbCircle
 10
-308.1470226598157
 20
31.77833886260268
 30
0.0
 40
2.7
  0
CIRCLE
  5
2287
330
22
100
AcDbEntity
  8
0
100
AcDbCircle
 10
-297.1166286598156
 20
24.40806486260269
 30
0.0
 40
2.7
  0
CIRCLE
  5
2288
330
22
100
AcDbEntity
  8
0
100
AcDbCircle
 10
-284.1053921598156
 20
21.81996936260274
 30
0.0
 40
2.7
  0
CIRCLE
  5
2289
330
22
100
AcDbEntity
  8
0
100
AcDbCircle
 10
-271.0941551598157
 20
24.40806486260269
 30
0.0
 40
2.7
  0
CIRCLE
  5
228A
330
22
100
AcDbEntity
  8
0
100
AcDbCircle
 10
-260.0637616598157
 20
31.77833886260268
 30
0.0
 40
2.7
  0
CIRCLE
  5
228B
330
22
100
AcDbEntity
  8
0
100
AcDbCircle
 10
-252.6934881598157
 20
42.80873236260274
 30
0.0
 40
2.7
  0
CIRCLE
  5
228C
330
22
100
AcDbEntity
  8
0
100
AcDbCircle
 10
-250.1053921598157
 20
55.81996936260267
 30
0.0
 40
2.7
  0
CIRCLE
  5
228D
330
22
100
AcDbEntity
  8
0
100
AcDbCircle
 10
-252.6934881598157
 20
68.83120586260273
 30
0.0
 40
2.7
  0
CIRCLE
  5
228E
330
22
100
AcDbEntity
  8
0
100
AcDbCircle
 10
-284.1053921598156
 20
55.81996936260267
 30
0.0
 40
30.3
  0
CIRCLE
  5
2290
330
22
100
AcDbEntity
  8
0
100
AcDbCircle
 10
-284.1053921598156
 20
55.81996936260267
 30
0.0
 40
29.0
  0
LINE
  5
22A0
330
22
100
AcDbEntity
  8
SIZE
100
AcDbLine
 10
-375.1609235304053
 20
-56.80326588829851
 30
0.0
 11
-69.49290590899011
 21
-56.80326588829851
 31
0.0
  0
LINE
  5
22A1
330
22
100
AcDbEntity
  8
SIZE
100
AcDbLine
 10
-375.1609235304053
 20
161.0531955190942
 30
0.0
 11
-69.49290590899011
 21
161.0531955190942
 31
0.0
  0
LINE
  5
22A2
330
22
100
AcDbEntity
  8
SIZE
100
AcDbLine
 10
-375.1609235304053
 20
161.0531955190942
 30
0.0
 11
-375.1609235304053
 21
-56.80326588829851
 31
0.0
  0
POINT
  5
22A3
330
22
100
AcDbEntity
  8
KIKI
100
AcDbPoint
 10
-391.1376744019938
 20
-61.22731900082996
 30
0.0
  0
LINE
  5
22A4
330
22
100
AcDbEntity
  8
SIZE
100
AcDbLine
 10
-69.49290590899011
 20
-56.80326588829851
 30
0.0
 11
-69.49290590899011
 21
161.0531955190942
 31
0.0
  0
LINE
  5
22A5
330
22
100
AcDbEntity
  8
SIZE
100
AcDbLine
 10
-210.2929059089421
 20
-49.92326588830088
 30
0.0
 11
-69.49290590899011
 21
-49.92326588830088
 31
0.0
  0
LINE
  5
22A6
330
22
100
AcDbEntity
  8
SIZE
100
AcDbLine
 10
-210.2929059089421
 20
-43.04326588830321
 30
0.0
 11
-69.49290590899011
 21
-43.04326588830321
 31
0.0
  0
LINE
  5
22A7
330
22
100
AcDbEntity
  8
SIZE
100
AcDbLine
 10
-210.2929059089421
 20
-36.00326588830561
 30
0.0
 11
-69.49290590899011
 21
-36.00326588830561
 31
0.0
  0
TEXT
  5
22A8
330
22
100
AcDbEntity
  8
SIZE
100
AcDbText
 10
-177.0929059089534
 20
-56.08326588829877
 30
0.0
 40
1.999999999999318
  1
調
100
AcDbText
  0
LINE
  5
22A9
330
22
100
AcDbEntity
  8
SIZE
100
AcDbLine
 10
-210.2929059089421
 20
-39.60326588830438
 30
0.0
 11
-125.492905908971
 21
-39.60326588830438
 31
0.0
  0
LINE
  5
22AA
330
22
100
AcDbEntity
  8
SIZE
100
AcDbLine
 10
-210.2929059089421
 20
-46.48326588830204
 30
0.0
 11
-125.492905908971
 21
-46.48326588830204
 31
0.0
  0
LINE
  5
22AB
330
22
100
AcDbEntity
  8
SIZE
100
AcDbLine
 10
-210.2929059089421
 20
-53.36326588829968
 30
0.0
 11
-125.492905908971
 21
-53.36326588829968
 31
0.0
  0
TEXT
  5
22AC
330
22
100
AcDbEntity
  8
SIZE
100
AcDbText
 10
-205.4929059089437
 20
-56.08326588829877
 30
0.0
 40
1.999999999999318
  1
計
100
AcDbText
  0
TEXT
  5
22AD
330
22
100
AcDbEntity
  8
SIZE
100
AcDbText
 10
-209.0929059089425
 20
-56.08326588829877
 30
0.0
 40
1.999999999999318
  1
設
100
AcDbText
  0
LINE
  5
22AE
330
22
100
AcDbEntity
  8
SIZE
100
AcDbLine
 10
-178.292905908953
 20
-53.36326588829968
 30
0.0
 11
-178.292905908953
 21
-56.80326588829851
 31
0.0
  0
LINE
  5
22AF
330
22
100
AcDbEntity
  8
SIZE
100
AcDbLine
 10
-190.2929059089489
 20
-53.36326588829968
 30
0.0
 11
-190.2929059089489
 21
-56.80326588829851
 31
0.0
  0
LINE
  5
22B0
330
22
100
AcDbEntity
  8
SIZE
100
AcDbLine
 10
-202.2929059089448
 20
-53.36326588829968
 30
0.0
 11
-202.2929059089448
 21
-56.80326588829851
 31
0.0
  0
LINE
  5
22B1
330
22
100
AcDbEntity
  8
SIZE
100
AcDbLine
 10
-210.2929059089421
 20
-36.00326588830561
 30
0.0
 11
-210.2929059089421
 21
-56.80326588829851
 31
0.0
  0
LINE
  5
22B2
330
22
100
AcDbEntity
  8
SIZE
100
AcDbLine
 10
-206.2929059089435
 20
-36.00326588830561
 30
0.0
 11
-206.2929059089435
 21
-53.36326588829968
 31
0.0
  0
TEXT
  5
22B3
330
22
100
AcDbEntity
  8
SIZE
100
AcDbText
 10
-209.2929059089424
 20
-52.64326588829994
 30
0.0
 40
1.999999999999318
  1
版
 41
0.833333
100
AcDbText
  0
TEXT
  5
22B4
330
22
100
AcDbEntity
  8
SIZE
100
AcDbText
 10
-205.0929059089439
 20
-52.64326588829994
 30
0.0
 40
1.999999999999318
  1
年
100
AcDbText
  0
LINE
  5
22B5
330
22
100
AcDbEntity
  8
SIZE
100
AcDbLine
 10
-182.2929059089516
 20
-36.00326588830561
 30
0.0
 11
-182.2929059089516
 21
-53.36326588829968
 31
0.0
  0
LINE
  5
22B6
330
22
100
AcDbEntity
  8
SIZE
100
AcDbLine
 10
-194.2929059089475
 20
-36.00326588830561
 30
0.0
 11
-194.2929059089475
 21
-53.36326588829968
 31
0.0
  0
TEXT
  5
22B7
330
22
100
AcDbEntity
  8
SIZE
100
AcDbText
 10
-201.2929059089452
 20
-52.64326588829994
 30
0.0
 40
1.999999999999318
  1
月
100
AcDbText
  0
TEXT
  5
22B8
330
22
100
AcDbEntity
  8
SIZE
100
AcDbText
 10
-197.4929059089464
 20
-52.64326588829994
 30
0.0
 40
1.999999999999318
  1
日
100
AcDbText
  0
TEXT
  5
22B9
330
22
100
AcDbEntity
  8
SIZE
100
AcDbText
 10
-193.0929059089479
 20
-52.64326588829994
 30
0.0
 40
1.999999999999318
  1
設
100
AcDbText
  0
TEXT
  5
22BA
330
22
100
AcDbEntity
  8
SIZE
100
AcDbText
 10
-185.4929059089505
 20
-52.64326588829994
 30
0.0
 40
1.999999999999318
  1
計
100
AcDbText
  0
TEXT
  5
22BB
330
22
100
AcDbEntity
  8
SIZE
100
AcDbText
 10
-181.092905908952
 20
-52.64326588829994
 30
0.0
 40
1.999999999999318
  1
調
100
AcDbText
  0
TEXT
  5
22BC
330
22
100
AcDbEntity
  8
SIZE
100
AcDbText
 10
-173.0929059089548
 20
-56.08326588829877
 30
0.0
 40
1.999999999999318
  1
査
100
AcDbText
  0
TEXT
  5
22BD
330
22
100
AcDbEntity
  8
SIZE
100
AcDbText
 10
-140.6929059089658
 20
-56.08326588829877
 30
0.0
 40
1.999999999999318
  1
認
100
AcDbText
  0
LINE
  5
22BE
330
22
100
AcDbEntity
  8
SIZE
100
AcDbLine
 10
-137.4929059089669
 20
-53.36326588829968
 30
0.0
 11
-137.4929059089669
 21
-56.80326588829851
 31
0.0
  0
LINE
  5
22BF
330
22
100
AcDbEntity
  8
SIZE
100
AcDbLine
 10
-157.8529059089599
 20
-53.36326588829968
 30
0.0
 11
-157.8529059089599
 21
-56.80326588829851
 31
0.0
  0
LINE
  5
22C0
330
22
100
AcDbEntity
  8
SIZE
100
AcDbLine
 10
-145.4929059089642
 20
-53.36326588829968
 30
0.0
 11
-145.4929059089642
 21
-56.80326588829851
 31
0.0
  0
LINE
  5
22C1
330
22
100
AcDbEntity
  8
SIZE
100
AcDbLine
 10
-169.8929059089558
 20
-36.00326588830561
 30
0.0
 11
-169.8929059089558
 21
-56.80326588829851
 31
0.0
  0
LINE
  5
22C2
330
22
100
AcDbEntity
  8
SIZE
100
AcDbLine
 10
-125.492905908971
 20
-36.00326588830561
 30
0.0
 11
-125.492905908971
 21
-56.80326588829851
 31
0.0
  0
TEXT
  5
22C3
330
22
100
AcDbEntity
  8
SIZE
100
AcDbText
 10
-144.2929059089646
 20
-56.08326588829877
 30
0.0
 40
1.999999999999318
  1
承
100
AcDbText
  0
TEXT
  5
22C4
330
22
100
AcDbEntity
  8
SIZE
100
AcDbText
 10
-173.0929059089548
 20
-52.64326588829994
 30
0.0
 40
1.999999999999318
  1
査
100
AcDbText
  0
TEXT
  5
22C5
330
22
100
AcDbEntity
  8
SIZE
100
AcDbText
 10
-168.6929059089562
 20
-52.64326588829994
 30
0.0
 40
1.999999999999318
  1
変
100
AcDbText
  0
TEXT
  5
22C6
330
22
100
AcDbEntity
  8
SIZE
100
AcDbText
 10
-155.3595729009607
 20
-52.64326588829994
 30
0.0
 40
1.999999999999318
  1
更
100
AcDbText
  0
TEXT
  5
22C7
330
22
100
AcDbEntity
  8
SIZE
100
AcDbText
 10
-142.0262398929653
 20
-52.64326588829994
 30
0.0
 40
1.999999999999318
  1
内
100
AcDbText
  0
TEXT
  5
22C8
330
22
100
AcDbEntity
  8
SIZE
100
AcDbText
 10
-128.6929068849697
 20
-52.64326588829994
 30
0.0
 40
1.999999999999318
  1
容
100
AcDbText
  0
LINE
  5
22C9
330
22
100
AcDbEntity
  8
SIZE
100
AcDbLine
 10
-79.49290590898669
 20
-46.40326588830205
 30
0.0
 11
-69.49290590899011
 21
-46.40326588830205
 31
0.0
  0
TEXT
  5
22CA
330
22
100
AcDbEntity
  8
SIZE
100
AcDbText
 10
-124.2929059089714
 20
-55.363265888299
 30
0.0
 40
3.999999999998636
  1
株式会社イズム
 41
0.972222
100
AcDbText
  0
TEXT
  5
22CB
330
22
100
AcDbEntity
  8
SIZE
100
AcDbText
 10
-78.29290593298697
 20
-54.49612078912782
 30
0.0
 40
1.999999999999318
  1
/
 50
0.0000010000681696
100
AcDbText
  0
LINE
  5
22CC
330
22
100
AcDbEntity
  8
SIZE
100
AcDbLine
 10
-87.0929059089841
 20
-49.92326588830088
 30
0.0
 11
-87.0929059089841
 21
-56.80326588829851
 31
0.0
  0
LINE
  5
22CD
330
22
100
AcDbEntity
  8
SIZE
100
AcDbLine
 10
-91.09290590898273
 20
-49.92326588830088
 30
0.0
 11
-91.09290590898273
 21
-56.80326588829851
 31
0.0
  0
TEXT
  5
22CE
330
22
100
AcDbEntity
  8
SIZE
100
AcDbText
 10
-90.09025063698301
 20
-56.52802733629861
 30
0.0
 40
1.999999999999318
  1
ジ
100
AcDbText
  0
LINE
  5
22CF
330
22
100
AcDbEntity
  8
SIZE
100
AcDbLine
 10
-121.4929059089723
 20
-36.00326588830561
 30
0.0
 11
-121.4929059089723
 21
-49.92326588830088
 31
0.0
  0
TEXT
  5
22D0
330
22
100
AcDbEntity
  8
SIZE
100
AcDbText
 10
-124.4929059089713
 20
-45.44326588830239
 30
0.0
 40
1.999999999999318
  1
図
100
AcDbText
  0
TEXT
  5
22D1
330
22
100
AcDbEntity
  8
SIZE
100
AcDbText
 10
-124.4929059089713
 20
-49.04326588830116
 30
0.0
 40
1.999999999999318
  1
番
100
AcDbText
  0
TEXT
  5
22D2
330
22
100
AcDbEntity
  8
SIZE
100
AcDbText
 10
-124.4929059089713
 20
-42.00326588830356
 30
0.0
 40
1.999999999999318
  1
称
100
AcDbText
  0
TEXT
  5
22D3
330
22
100
AcDbEntity
  8
SIZE
100
AcDbText
 10
-124.4929059089713
 20
-38.40326588830479
 30
0.0
 40
1.999999999999318
  1
名
100
AcDbText
  0
TEXT
  5
22D4
330
22
100
AcDbEntity
  8
SIZE
100
AcDbText
 10
-90.09290590898308
 20
-52.32326588830005
 30
0.0
 40
1.999999999999318
  1
ぺ
100
AcDbText
  0
LINE
  5
22D5
330
22
100
AcDbEntity
  8
SIZE
100
AcDbLine
 10
-89.09290590898342
 20
-52.32326588830005
 30
0.0
 11
-89.09290590898342
 21
-54.04612268029947
 31
0.0
  0
TEXT
  5
22D6
330
22
100
AcDbEntity
  8
SIZE
100
AcDbText
 10
-75.29290590898813
 20
-45.52326588830235
 30
0.0
 40
1.599999999999454
  1
出
100
AcDbText
  0
TEXT
  5
22D7
330
22
100
AcDbEntity
  8
SIZE
100
AcDbText
 10
-79.09290590898684
 20
-45.52326588830235
 30
0.0
 40
1.599999999999454
  1
提
100
AcDbText
  0
LINE
  5
22D8
330
22
100
AcDbEntity
  8
SIZE
100
AcDbLine
 10
-79.49290590898669
 20
-43.04326588830321
 30
0.0
 11
-79.49290590898669
 21
-49.92326588830088
 31
0.0
  0
TEXT
  5
22D9
330
22
100
AcDbEntity
  8
SIZE
100
AcDbText
 10
-71.49290590898942
 20
-45.52326588830235
 30
0.0
 40
1.599999999999454
  1
先
100
AcDbText
  0
TEXT
  5
22DA
330
22
100
AcDbEntity
  8
SIZE
100
AcDbText
 10
-119.0054408596934
 20
-41.06224117073844
 30
0.0
 40
2.999999999998977
  1
視線誘導標\U+03c6８０外観図
 41
0.972222
100
AcDbText
  0
TEXT
  5
22DB
330
22
100
AcDbEntity
  8
SIZE
100
AcDbText
 10
-119.1546425949849
 20
-47.62960110004343
 30
0.0
 40
2.999999999998977
  1
IZM-0080-A
 41
0.972222
100
AcDbText
  0
CIRCLE
  5
2306
330
22
100
AcDbEntity
  8
0
100
AcDbCircle
 10
-284.1053921598156
 20
55.81996936260267
 30
0.0
 40
40.0
  0
CIRCLE
  5
231B
330
22
100
AcDbEntity
  8
0
100
AcDbCircle
 10
-284.1053921598156
 20
55.81996936260267
 30
0.0
 40
38.15000000000005
  0
DIMENSION
  5
23E9
330
22
100
AcDbEntity
  8
0
 62
     3
100
AcDbDimension
  2
*D5
 10
-244.1053921598157
 20
126.9039733081358
 30
0.0
 11
-284.1053921598156
 21
130.4039733081358
 31
0.0
 70
    32
 71
     5
 42
80.0
  3
Standard
100
AcDbAlignedDimension
 13
-324.1053921598157
 23
55.81996936260267
 33
0.0
 14
-244.1053921598157
 24
55.81996936260267
 34
0.0
100
AcDbRotatedDimension
  0
DIMENSION
  5
23F6
330
22
100
AcDbEntity
  8
0
 62
     3
100
AcDbDimension
  2
*D6
 10
-174.0794893071777
 20
5.395937712068757
 30
0.0
 11
-165.0818633071777
 21
8.895937712068757
 31
0.0
 70
    32
 71
     5
 42
17.99525199999999
  3
Standard
100
AcDbAlignedDimension
 13
-156.0842373071777
 23
19.38455336260264
 33
0.0
 14
-174.0794893071777
 24
56.01481636260264
 34
0.0
100
AcDbRotatedDimension
  0
ARC
  5
244C
330
22
100
AcDbEntity
  8
0
100
AcDbCircle
 10
-284.1053921598156
 20
55.81996936260267
 30
0.0
 40
26.83167490578253
100
AcDbArc
 50
58.79647264117895
 51
121.2035273588209
  0
LINE
  5
244D
330
22
100
AcDbEntity
  8
0
100
AcDbLine
 10
-298.0063373884538
 20
78.76996936260275
 30
0.0
 11
-270.2044469311775
 21
78.76996936260273
 31
0.0
  0
LINE
  5
244E
330
22
100
AcDbEntity
  8
0
100
AcDbLine
 10
-297.0548623516652
 20
32.31996936260268
 30
0.0
 11
-271.1559219679661
 21
32.31996936260268
 31
0.0
  0
ARC
  5
244F
330
22
100
AcDbEntity
  8
0
100
AcDbCircle
 10
-284.1053921598156
 20
55.81996936260267
 30
0.0
 40
26.83167490578253
100
AcDbArc
 50
241.1434212375175
 51
298.8565787624825
  0
LINE
  5
2454
330
22
100
AcDbEntity
  8
0
100
AcDbLine
 10
-269.4872945322309
 20
33.31996936260268
 30
0.0
 11
-298.7234897874005
 21
33.31996936260268
 31
0.0
  0
LINE
  5
2456
330
22
100
AcDbEntity
  8
0
100
AcDbLine
 10
-305.9717196578114
 20
40.26996936260272
 30
0.0
 11
-262.23906466182
 21
40.26996936260272
 31
0.0
  0
LINE
  5
245C
330
22
100
AcDbEntity
  8
0
100
AcDbLine
 10
-261.8581725975962
 20
40.81996936260267
 30
0.0
 11
-306.3526117220352
 21
40.81996936260267
 31
0.0
  0
LINE
  5
245E
330
22
100
AcDbEntity
  8
0
100
AcDbLine
 10
-309.7010222214024
 20
47.76996936260272
 30
0.0
 11
-258.509762098229
 21
47.76996936260272
 31
0.0
  0
LINE
  5
2464
330
22
100
AcDbEntity
  8
0
100
AcDbLine
 10
-258.3432342872771
 20
48.31996936260267
 30
0.0
 11
-309.8675500323543
 21
48.31996936260267
 31
0.0
  0
LINE
  5
2466
330
22
100
AcDbEntity
  8
0
100
AcDbLine
 10
-310.9314294789875
 20
55.26996936260272
 30
0.0
 11
-257.2793548406438
 21
55.26996936260272
 31
0.0
  0
LINE
  5
246C
330
22
100
AcDbEntity
  8
0
100
AcDbLine
 10
-257.2737172540331
 20
55.81996936260267
 30
0.0
 11
-310.9370670655982
 21
55.81996936260267
 31
0.0
  0
LINE
  5
246E
330
22
100
AcDbEntity
  8
0
100
AcDbLine
 10
-310.0213385683418
 20
62.76996936260273
 30
0.0
 11
-258.1894457512895
 21
62.76996936260272
 31
0.0
  0
LINE
  5
2474
330
22
100
AcDbEntity
  8
0
100
AcDbLine
 10
-258.3432342872771
 20
63.31996936260267
 30
0.0
 11
-309.8675500323543
 21
63.31996936260267
 31
0.0
  0
LINE
  5
2476
330
22
100
AcDbEntity
  8
0
100
AcDbLine
 10
-306.713715367201
 20
70.26996936260272
 30
0.0
 11
-261.4970689524303
 21
70.26996936260272
 31
0.0
  0
LINE
  5
247C
330
22
100
AcDbEntity
  8
0
100
AcDbLine
 10
-261.8581725975962
 20
70.81996936260267
 30
0.0
 11
-306.3526117220352
 21
70.81996936260267
 31
0.0
  0
LINE
  5
247E
330
22
100
AcDbEntity
  8
0
100
AcDbLine
 10
-299.5370569517167
 20
77.76996936260272
 30
0.0
 11
-268.6737273679146
 21
77.76996936260272
 31
0.0
  0
ARC
  5
2482
330
22
100
AcDbEntity
  8
0
100
AcDbCircle
 10
-284.1053921598156
 20
55.81996936260267
 30
0.0
 40
26.83167490578254
100
AcDbArc
 50
125.1086416769212
 51
146.0105139901579
  0
ARC
  5
2484
330
22
100
AcDbEntity
  8
0
100
AcDbCircle
 10
-284.1053921598156
 20
55.81996936260267
 30
0.0
 40
26.83167490578254
100
AcDbArc
 50
33.98948600984208
 51
54.89135832307875
  0
ARC
  5
2485
330
22
100
AcDbEntity
  8
0
100
AcDbCircle
 10
-284.1053921598156
 20
55.81996936260267
 30
0.0
 40
26.83167490578254
100
AcDbArc
 50
0.0
 51
32.58448240689914
  0
ARC
  5
2486
330
22
100
AcDbEntity
  8
0
100
AcDbCircle
 10
-284.1053921598156
 20
55.81996936260267
 30
0.0
 40
26.83167490578254
100
AcDbArc
 50
343.7684183414746
 51
358.8254596082863
  0
ARC
  5
2487
330
22
100
AcDbEntity
  8
0
100
AcDbCircle
 10
-284.1053921598156
 20
55.81996936260267
 30
0.0
 40
26.83167490578254
100
AcDbArc
 50
326.0105139901579
 51
342.5412831634065
  0
ARC
  5
2488
330
22
100
AcDbEntity
  8
0
100
AcDbCircle
 10
-284.1053921598156
 20
55.81996936260267
 30
0.0
 40
26.83167490578254
100
AcDbArc
 50
303.0115095867614
 51
324.5818804688281
  0
ARC
  5
248A
330
22
100
AcDbEntity
  8
0
100
AcDbCircle
 10
-284.1053921598156
 20
55.81996936260267
 30
0.0
 40
26.83167490578254
100
AcDbArc
 50
215.4181195311718
 51
236.9884904132386
  0
ARC
  5
248B
330
22
100
AcDbEntity
  8
0
100
AcDbCircle
 10
-284.1053921598156
 20
55.81996936260267
 30
0.0
 40
26.83167490578254
100
AcDbArc
 50
197.4587168365935
 51
213.9894860098421
  0
ARC
  5
248C
330
22
100
AcDbEntity
  8
0
100
AcDbCircle
 10
-284.1053921598156
 20
55.81996936260267
 30
0.0
 40
26.83167490578254
100
AcDbArc
 50
181.1745403917137
 51
196.2315816585254
  0
ARC
  5
248D
330
22
100
AcDbEntity
  8
0
100
AcDbCircle
 10
-284.1053921598156
 20
55.81996936260267
 30
0.0
 40
26.83167490578254
100
AcDbArc
 50
164.9879479447769
 51
180.0
  0
ARC
  5
248E
330
22
100
AcDbEntity
  8
0
100
AcDbCircle
 10
-284.1053921598156
 20
55.81996936260267
 30
0.0
 40
26.83167490578254
100
AcDbArc
 50
147.4155175931008
 51
163.7684183414746
  0
LEADER
  5
26F9
330
22
100
AcDbEntity
  8
0
  6
Continuous
100
AcDbLeader
  3
Standard
 76
     3
 10
-275.7744994417686
 20
73.15526574855642
 30
0.0
 10
-250.6770792097315
 20
103.3339213479607
 30
0.0
 10
-218.0315619909744
 20
103.3339213479607
 30
0.0
1001
ACAD
1000
DSTYLE
1002
{
1070
    77
1070
     0
1070
    41
1040
2.0
1070
    42
1040
2.0
1070
    43
1040
1.0
1070
   140
1040
5.0
1070
   147
1040
1.0
1070
   173
1070
     0
1070
   271
1070
     0
1070
   272
1070
     0
1070
   279
1070
     0
1002
}
  0
TEXT
  5
26FA
330
22
100
AcDbEntity
  8
0
100
AcDbText
 10
-249.9942001186866
 20
105.3052819042295
 30
0.0
 40
2.999999999998977
  1
アモルファス太陽電池
 41
0.972222
100
AcDbText
  0
TEXT
  5
26FB
330
22
100
AcDbEntity
  8
0
100
AcDbText
 10
-209.6311189618413
 20
-32.04500552878597
 30
0.0
 40
3.0
  1
＊注記：サーモアイの発光ダイオードは白色/青色　各８個を交互に配置しています。
  7
BIGFONT
100
AcDbText
  0
LEADER
  5
26FC
330
22
100
AcDbEntity
  8
0
  6
Continuous
100
AcDbLeader
  3
Standard
 76
     3
 10
-250.9870764542581
 20
61.87091607582852
 30
0.0
 10
-225.8896562222209
 20
92.04957167523287
 30
0.0
 10
-193.2441390034638
 20
92.04957167523287
 30
0.0
1001
ACAD
1000
DSTYLE
1002
{
1070
    77
1070
     0
1070
    41
1040
2.0
1070
    42
1040
2.0
1070
    43
1040
1.0
1070
   140
1040
5.0
1070
   147
1040
1.0
1070
   173
1070
     0
1070
   271
1070
     0
1070
   272
1070
     0
1070
   279
1070
     0
1002
}
  0
TEXT
  5
26FD
330
22
100
AcDbEntity
  8
0
100
AcDbText
 10
-225.2067771311761
 20
94.02093223150165
 30
0.0
 40
3.0
  1
高輝度反射シート
  7
BIGFONT
100
AcDbText
  0
LEADER
  5
26FE
330
22
100
AcDbEntity
  8
0
  6
Continuous
100
AcDbLeader
  3
Standard
 76
     3
 10
-252.1396256464835
 20
42.40142375952223
 30
0.0
 10
-227.0422054144463
 20
72.58007935892658
 30
0.0
 10
-194.3966881956893
 20
72.58007935892658
 30
0.0
1001
ACAD
1000
DSTYLE
1002
{
1070
    77
1070
     0
1070
    41
1040
2.0
1070
    42
1040
2.0
1070
    43
1040
1.0
1070
   140
1040
5.0
1070
   147
1040
1.0
1070
   173
1070
     0
1070
   271
1070
     0
1070
   272
1070
     0
1070
   279
1070
     0
1002
}
  0
TEXT
  5
26FF
330
22
100
AcDbEntity
  8
0
100
AcDbText
 10
-226.3593263234016
 20
74.55143991519538
 30
0.0
 40
3.0
  1
高輝度発光ダイオード
  7
BIGFONT
100
AcDbText
  0
ENDSEC
  0
SECTION
  2
OBJECTS
  0
DICTIONARY
  5
C
330
0
100
AcDbDictionary
281
     1
  3
ACAD_COLOR
350
1B
  3
ACAD_GROUP
350
D
  3
ACAD_LAYOUT
350
19
  3
ACAD_MATERIAL
350
1A
  3
ACAD_MLINESTYLE
350
16
  3
ACAD_PLOTSETTINGS
350
18
  3
ACAD_PLOTSTYLENAME
350
E
  3
ACAD_TABLESTYLE
350
1C
  3
ACDBHEADERROUNDTRIPXREC
350
2705
  3
AcDbVariableDictionary
350
9BE
  3
DWGPROPS
350
2704
  0
DICTIONARY
  5
20EC
330
2
100
AcDbDictionary
280
     1
281
     1
  3
ACAD_LAYERSTATES
360
20ED
  0
DICTIONARY
  5
2450
330
22
100
AcDbDictionary
280
     1
281
     1
  3
ACAD_SORTENTS
360
2451
  0
DICTIONARY
  5
1B
102
{ACAD_REACTORS
330
C
102
}
330
C
100
AcDbDictionary
281
     1
  0
DICTIONARY
  5
D
102
{ACAD_REACTORS
330
C
102
}
330
C
100
AcDbDictionary
281
     1
  0
DICTIONARY
  5
19
102
{ACAD_REACTORS
330
C
102
}
330
C
100
AcDbDictionary
281
     1
  3
Model
350
25
  3
レイアウト1
350
21
  0
DICTIONARY
  5
1A
102
{ACAD_REACTORS
330
C
102
}
330
C
100
AcDbDictionary
281
     1
  0
DICTIONARY
  5
16
102
{ACAD_REACTORS
330
C
102
}
330
C
100
AcDbDictionary
281
     1
  3
Standard
350
17
  0
DICTIONARY
  5
18
102
{ACAD_REACTORS
330
C
102
}
330
C
100
AcDbDictionary
281
     1
  0
ACDBDICTIONARYWDFLT
  5
E
102
{ACAD_REACTORS
330
C
102
}
330
C
100
AcDbDictionary
281
     1
  3
Normal
350
F
100
AcDbDictionaryWithDefault
340
F
  0
DICTIONARY
  5
1C
102
{ACAD_REACTORS
330
C
102
}
330
C
100
AcDbDictionary
281
     1
  3
Standard
350
1D
  0
DICTIONARY
  5
2705
102
{ACAD_REACTORS
330
C
102
}
330
C
100
AcDbDictionary
281
     1
  0
DICTIONARY
  5
9BE
102
{ACAD_REACTORS
330
C
102
}
330
C
100
AcDbDictionary
281
     1
  3
CTABLESTYLE
350
9BF
  3
DIMASSOC
350
2701
  3
PROJECTNAME
350
2702
  0
XRECORD
  5
2704
102
{ACAD_REACTORS
330
C
102
}
330
C
100
AcDbXrecord
280
     1
  1
DWGPROPS COOKIE
  2

  3

  4

  6

  7

  8

  9

300
=
301
=
302
=
303
=
304
=
305
=
306
=
307
=
308
=
309
=
 40
0.0260943171296296
 41
2305814.417176053
 42
2455447.417262547
  1

 90
        0
  0
DICTIONARY
  5
20ED
102
{ACAD_REACTORS
330
20EC
102
}
330
20EC
100
AcDbDictionary
281
     1
  0
SORTENTSTABLE
  5
2451
102
{ACAD_REACTORS
330
2450
102
}
330
2450
100
AcDbSortentsTable
330
22
331
1AF
  5
1AF
331
227A
  5
227A
331
225
  5
225
331
25C
  5
25C
331
1B7
  5
1B7
331
22C1
  5
245F
331
22C9
  5
2467
331
2282
  5
2282
331
1EE
  5
1EE
331
22D
  5
22D
331
264
  5
264
331
22D1
  5
246F
331
228A
  5
228A
331
1F6
  5
1F6
331
235
  5
235
331
26C
  5
26C
331
1FE
  5
1FE
331
23D
  5
23D
331
22A2
  5
22D2
331
198
  5
198
331
206
  5
206
331
22D9
  5
2477
331
245
  5
245
331
22AA
  5
22DA
331
1A0
  5
1A0
331
20E
  5
20E
331
216
  5
216
331
24D
  5
24D
331
22B2
  5
244E
331
2487
  5
248A
331
22BA
  5
2458
331
23E9
  5
247C
331
21E
  5
21E
331
255
  5
255
331
1A8
  5
1A8
331
1B0
  5
1B0
331
22C2
  5
2460
331
25D
  5
25D
331
226
  5
226
331
227B
  5
227B
331
22CA
  5
2468
331
265
  5
265
331
1EF
  5
1EF
331
22E
  5
22E
331
2283
  5
2283
331
22D2
  5
2470
331
228B
  5
228B
331
236
  5
236
331
26D
  5
26D
331
1F7
  5
1F7
331
1FF
  5
1FF
331
22DA
  5
2478
331
207
  5
207
331
23E
  5
23E
331
199
  5
199
331
22A3
  5
22D3
331
22AB
  5
22DB
331
20F
  5
20F
331
246
  5
246
331
1A1
  5
1A1
331
24E
  5
24E
331
22B3
  5
244F
331
2488
  5
2489
331
217
  5
217
331
256
  5
256
331
22BB
  5
2459
331
21F
  5
21F
331
1A9
  5
1A9
331
1B1
  5
1B1
331
227C
  5
227C
331
227
  5
227
331
25E
  5
25E
331
22C3
  5
2461
331
22CB
  5
2469
331
2284
  5
2284
331
1F0
  5
1F0
331
22F
  5
22F
331
266
  5
266
331
22D3
  5
2471
331
26E
  5
26E
331
1F8
  5
1F8
331
237
  5
237
331
228C
  5
228C
331
200
  5
200
331
23F
  5
23F
331
22A4
  5
22D4
331
19A
  5
19A
331
208
  5
208
331
22DB
  5
2479
331
210
  5
210
331
247
  5
247
331
1A2
  5
1A2
331
22AC
  5
2306
331
231B
  5
247B
331
218
  5
218
331
24F
  5
24F
331
22B4
  5
2452
331
22BC
  5
245A
331
257
  5
257
331
1AA
  5
1AA
331
220
  5
220
331
1B2
  5
1B2
331
22C4
  5
2462
331
25F
  5
25F
331
228
  5
228
331
227D
  5
227D
331
2285
  5
2285
331
267
  5
267
331
22CC
  5
246A
331
1F1
  5
1F1
331
230
  5
230
331
22D4
  5
2472
331
228D
  5
228D
331
26F
  5
26F
331
1F9
  5
1F9
331
201
  5
201
331
238
  5
238
331
209
  5
209
331
240
  5
240
331
22A5
  5
22D5
331
22AD
  5
231B
331
2482
  5
2482
331
1A3
  5
1A3
331
211
  5
211
331
248
  5
248
331
250
  5
250
331
22B5
  5
2453
331
248A
  5
2487
331
219
  5
219
331
22BD
  5
245B
331
1AB
  5
1AB
331
221
  5
221
331
258
  5
258
331
1B3
  5
1B3
331
227E
  5
227E
331
229
  5
229
331
260
  5
260
331
1EA
  5
1EA
331
22C5
  5
2463
331
22CD
  5
246B
331
2286
  5
2286
331
1F2
  5
1F2
331
231
  5
231
331
268
  5
268
331
22D5
  5
2473
331
270
  5
270
331
1FA
  5
1FA
331
228E
  5
228E
331
202
  5
202
331
239
  5
239
331
241
  5
241
331
22A6
  5
22D6
331
20A
  5
20A
331
212
  5
212
331
249
  5
249
331
1A4
  5
1A4
331
1D3
  5
1D3
331
22AE
  5
23E9
331
244C
  5
247E
331
2454
  5
22CE
331
21A
  5
21A
331
251
  5
251
331
22B6
  5
2454
331
248B
  5
2486
331
22BE
  5
245C
331
245C
  5
22C6
331
1AC
  5
1AC
331
1B4
  5
1B4
331
222
  5
222
331
259
  5
259
331
2464
  5
22BE
331
22C6
  5
2464
331
261
  5
261
331
1EB
  5
1EB
331
22A
  5
22A
331
227F
  5
227F
331
246C
  5
22B6
331
2287
  5
2287
331
232
  5
232
331
269
  5
269
331
1F3
  5
1F3
331
22CE
  5
246C
331
22D6
  5
2474
331
271
  5
271
331
2474
  5
22AE
331
1FB
  5
1FB
331
203
  5
203
331
23A
  5
23A
331
195
  5
195
331
247C
  5
22A6
331
22A7
  5
22D7
331
20B
  5
20B
331
242
  5
242
331
2484
  5
248D
331
244D
  5
2480
331
22AF
  5
23F6
331
2306
  5
247A
331
1A5
  5
1A5
331
213
  5
213
331
24A
  5
24A
331
252
  5
252
331
22B7
  5
2455
331
248C
  5
2485
331
21B
  5
21B
331
22BF
  5
245D
331
1AD
  5
1AD
331
223
  5
223
331
25A
  5
25A
331
1B5
  5
1B5
331
23F6
  5
247D
331
2280
  5
2280
331
22B
  5
22B
331
262
  5
262
331
1EC
  5
1EC
331
22C7
  5
2465
331
22CF
  5
246D
331
2288
  5
2288
331
1F4
  5
1F4
331
233
  5
233
331
26A
  5
26A
331
22D7
  5
2475
331
272
  5
272
331
1FC
  5
1FC
331
2290
  5
2290
331
23B
  5
23B
331
22A0
  5
22D0
331
196
  5
196
331
204
  5
204
331
243
  5
243
331
22A8
  5
22D8
331
20C
  5
20C
331
2485
  5
248C
331
214
  5
214
331
24B
  5
24B
331
1A6
  5
1A6
331
22B0
  5
244C
331
244E
  5
2481
331
248D
  5
2484
331
22B8
  5
2456
331
2456
  5
22C8
331
21C
  5
21C
331
253
  5
253
331
245E
  5
22C0
331
1AE
  5
1AE
331
22C0
  5
245E
331
2279
  5
2279
331
1B6
  5
1B6
331
224
  5
224
331
25B
  5
25B
331
2466
  5
22B8
331
22C8
  5
2466
331
263
  5
263
331
1ED
  5
1ED
331
22C
  5
22C
331
2281
  5
2281
331
246E
  5
22B0
331
2289
  5
2289
331
234
  5
234
331
26B
  5
26B
331
1F5
  5
1F5
331
22D0
  5
246E
331
2476
  5
22A8
331
1FD
  5
1FD
331
22D8
  5
2476
331
205
  5
205
331
23C
  5
23C
331
197
  5
197
331
22A1
  5
22D1
331
247E
  5
22A0
331
22A9
  5
22D9
331
20D
  5
20D
331
244
  5
244
331
2486
  5
248B
331
24C
  5
24C
331
22B1
  5
244D
331
244F
  5
247F
331
1A7
  5
1A7
331
215
  5
215
331
248E
  5
2483
331
254
  5
254
331
22B9
  5
2457
331
21D
  5
21D
  0
LAYOUT
  5
25
102
{ACAD_XDICTIONARY
360
2708
102
}
102
{ACAD_REACTORS
330
19
102
}
330
19
100
AcDbPlotSettings
  1

  2
Adobe PDF
  4
A4
  6

 40
3.174999952316284
 41
3.174999952316284
 42
3.175003051757812
 43
3.17498779296875
 44
209.9098358154297
 45
297.0318298339844
 46
0.0
 47
2.536502573513502
 48
-375.1609235304053
 49
-56.80326588829851
140
-69.49290590899011
141
161.0531955190942
142
1.0
143
1.070233053341551
 70
 11956
 72
     1
 73
     1
 74
     4
  7
monochrome.ctb
 75
     0
147
0.9343759257647061
148
375.1609235304053
149
56.80326588829851
100
AcDbLayout
  1
Model
 70
     1
 71
     0
 10
0.0
 20
0.0
 11
12.0
 21
9.0
 12
0.0
 22
0.0
 32
0.0
 14
0.0
 24
0.0
 34
0.0
 15
0.0
 25
0.0
 35
0.0
146
0.0
 13
0.0
 23
0.0
 33
0.0
 16
1.0
 26
0.0
 36
0.0
 17
0.0
 27
1.0
 37
0.0
 76
     0
330
22
1001
ACAD_PSEXT
1000
Adobe PDF
1000
Adobe PDF Converter
1000
My Documents
1000
Adobe PDF の作成
1070
     0
  0
LAYOUT
  5
21
102
{ACAD_XDICTIONARY
360
2706
102
}
102
{ACAD_REACTORS
330
19
102
}
330
19
100
AcDbPlotSettings
  1

  2
RICOH imagio Neo C246 RPCS
  4

  6

 40
0.0
 41
0.0
 42
0.0
 43
0.0
 44
0.0
 45
0.0
 46
0.0
 47
0.0
 48
0.0
 49
0.0
140
0.0
141
0.0
142
1.0
143
1.0
 70
   688
 72
     0
 73
     0
 74
     5
  7
monochrome.ctb
 75
    16
147
1.0
148
0.0
149
0.0
100
AcDbLayout
  1
レイアウト1
 70
     1
 71
     1
 10
0.0
 20
0.0
 11
12.0
 21
297.0
 12
0.0
 22
0.0
 32
0.0
 14
1.000000000000000E+20
 24
1.000000000000000E+20
 34
1.000000000000000E+20
 15
-1.000000000000000E+20
 25
-1.000000000000000E+20
 35
-1.000000000000000E+20
146
0.0
 13
0.0
 23
0.0
 33
0.0
 16
1.0
 26
0.0
 36
0.0
 17
0.0
 27
1.0
 37
0.0
 76
     0
330
1E
  0
MLINESTYLE
  5
17
102
{ACAD_REACTORS
330
16
102
}
330
16
100
AcDbMlineStyle
  2
STANDARD
 70
     0
  3

 62
   256
 51
90.0
 52
90.0
 71
     2
 49
0.5
 62
   256
  6
BYLAYER
 49
-0.5
 62
   256
  6
BYLAYER
  0
ACDBPLACEHOLDER
  5
F
102
{ACAD_REACTORS
330
E
102
}
330
E
  0
TABLESTYLE
  5
1D
102
{ACAD_REACTORS
330
1C
102
}
330
1C
100
AcDbTableStyle
  3
Standard
 70
     0
 71
     0
 40
0.06
 41
0.06
280
     0
281
     0
  7
STANDARD
140
0.18
170
     2
 62
     0
 63
     7
283
     0
274
    -2
284
     1
 64
     0
275
    -2
285
     1
 65
     0
276
    -2
286
     1
 66
     0
277
    -2
287
     1
 67
     0
278
    -2
288
     1
 68
     0
279
    -2
289
     1
 69
     0
  7
STANDARD
140
0.25
170
     5
 62
     0
 63
     7
283
     0
274
    -2
284
     1
 64
     0
275
    -2
285
     1
 65
     0
276
    -2
286
     1
 66
     0
277
    -2
287
     1
 67
     0
278
    -2
288
     1
 68
     0
279
    -2
289
     1
 69
     0
  7
STANDARD
140
0.18
170
     5
 62
     0
 63
     7
283
     0
274
    -2
284
     1
 64
     0
275
    -2
285
     1
 65
     0
276
    -2
286
     1
 66
     0
277
    -2
287
     1
 67
     0
278
    -2
288
     1
 68
     0
279
    -2
289
     1
 69
     0
  0
DICTIONARYVAR
  5
9BF
102
{ACAD_REACTORS
330
9BE
102
}
330
9BE
100
DictionaryVariables
280
     0
  1
STANDARD
  0
DICTIONARYVAR
  5
2701
102
{ACAD_REACTORS
330
9BE
102
}
330
9BE
100
DictionaryVariables
280
     0
  1
1
  0
DICTIONARYVAR
  5
2702
102
{ACAD_REACTORS
330
9BE
102
}
330
9BE
100
DictionaryVariables
280
     0
  1

  0
DICTIONARY
  5
2708
330
25
100
AcDbDictionary
280
     1
281
     1
  3
ACAD_XREC_ROUNDTRIP
360
2709
  0
DICTIONARY
  5
2706
330
21
100
AcDbDictionary
280
     1
281
     1
  3
ACAD_XREC_ROUNDTRIP
360
2707
  0
XRECORD
  5
2709
102
{ACAD_REACTORS
330
2708
102
}
330
2708
100
AcDbXrecord
280
     1
102
SHADEPLOT
 70
     0
102
SHADEPLOTRESLEVEL
 70
     2
102
SHADEPLOTCUSTOMDPI
 70
   300
  0
XRECORD
  5
2707
102
{ACAD_REACTORS
330
2706
102
}
330
2706
100
AcDbXrecord
280
     1
102
SHADEPLOT
 70
     0
102
SHADEPLOTRESLEVEL
 70
     2
102
SHADEPLOTCUSTOMDPI
 70
   300
  0
ENDSEC
  0
EOF
