  0
SECTION
  2
HEADER
  9
$ACADVER
  1
AC1015
  9
$ACADMAINTVER
 70
    20
  9
$DWGCODEPAGE
  3
ANSI_932
  9
$INSBASE
 10
0.0
 20
0.0
 30
0.0
  9
$EXTMIN
 10
156.6206459183635
 20
204.8151372287943
 30
0.0
  9
$EXTMAX
 10
478.2654144113672
 20
427.0956517487185
 30
0.0
  9
$LIMMIN
 10
0.0
 20
0.0
  9
$LIMMAX
 10
12.0
 20
9.0
  9
$ORTHOMODE
 70
     0
  9
$REGENMODE
 70
     1
  9
$FILLMODE
 70
     1
  9
$QTEXTMODE
 70
     0
  9
$MIRRTEXT
 70
     0
  9
$LTSCALE
 40
1.0
  9
$ATTMODE
 70
     1
  9
$TEXTSIZE
 40
0.2
  9
$TRACEWID
 40
0.05
  9
$TEXTSTYLE
  7
STANDARD
  9
$CLAYER
  8
0
  9
$CELTYPE
  6
CONTINUOUS
  9
$CECOLOR
 62
   256
  9
$CELTSCALE
 40
1.0
  9
$DISPSILH
 70
     0
  9
$DIMSCALE
 40
1.0
  9
$DIMASZ
 40
2.0
  9
$DIMEXO
 40
2.0
  9
$DIMDLI
 40
1.0
  9
$DIMRND
 40
0.0
  9
$DIMDLE
 40
0.0
  9
$DIMEXE
 40
1.0
  9
$DIMTP
 40
0.0
  9
$DIMTM
 40
0.0
  9
$DIMTXT
 40
5.0
  9
$DIMCEN
 40
0.09
  9
$DIMTSZ
 40
0.0
  9
$DIMTOL
 70
     0
  9
$DIMLIM
 70
     0
  9
$DIMTIH
 70
     0
  9
$DIMTOH
 70
     0
  9
$DIMSE1
 70
     0
  9
$DIMSE2
 70
     0
  9
$DIMTAD
 70
     1
  9
$DIMZIN
 70
     0
  9
$DIMBLK
  1

  9
$DIMASO
 70
     1
  9
$DIMSHO
 70
     1
  9
$DIMPOST
  1

  9
$DIMAPOST
  1

  9
$DIMALT
 70
     0
  9
$DIMALTD
 70
     2
  9
$DIMALTF
 40
25.4
  9
$DIMLFAC
 40
1.0
  9
$DIMTOFL
 70
     0
  9
$DIMTVP
 40
0.0
  9
$DIMTIX
 70
     0
  9
$DIMSOXD
 70
     0
  9
$DIMSAH
 70
     0
  9
$DIMBLK1
  1

  9
$DIMBLK2
  1

  9
$DIMSTYLE
  2
STANDARD
  9
$DIMCLRD
 70
     0
  9
$DIMCLRE
 70
     0
  9
$DIMCLRT
 70
     0
  9
$DIMTFAC
 40
1.0
  9
$DIMGAP
 40
1.0
  9
$DIMJUST
 70
     0
  9
$DIMSD1
 70
     0
  9
$DIMSD2
 70
     0
  9
$DIMTOLJ
 70
     1
  9
$DIMTZIN
 70
     0
  9
$DIMALTZ
 70
     0
  9
$DIMALTTZ
 70
     0
  9
$DIMUPT
 70
     0
  9
$DIMDEC
 70
     0
  9
$DIMTDEC
 70
     0
  9
$DIMALTU
 70
     2
  9
$DIMALTTD
 70
     2
  9
$DIMTXSTY
  7
STANDARD
  9
$DIMAUNIT
 70
     0
  9
$DIMADEC
 70
     0
  9
$DIMALTRND
 40
0.0
  9
$DIMAZIN
 70
     0
  9
$DIMDSEP
 70
    46
  9
$DIMATFIT
 70
     3
  9
$DIMFRAC
 70
     0
  9
$DIMLDRBLK
  1

  9
$DIMLUNIT
 70
     2
  9
$DIMLWD
 70
    -2
  9
$DIMLWE
 70
    -2
  9
$DIMTMOVE
 70
     0
  9
$LUNITS
 70
     2
  9
$LUPREC
 70
     4
  9
$SKETCHINC
 40
0.1
  9
$FILLETRAD
 40
0.0
  9
$AUNITS
 70
     0
  9
$AUPREC
 70
     0
  9
$MENU
  1
.
  9
$ELEVATION
 40
0.0
  9
$PELEVATION
 40
0.0
  9
$THICKNESS
 40
0.0
  9
$LIMCHECK
 70
     0
  9
$CHAMFERA
 40
0.0
  9
$CHAMFERB
 40
0.0
  9
$CHAMFERC
 40
0.0
  9
$CHAMFERD
 40
0.0
  9
$SKPOLY
 70
     0
  9
$TDCREATE
 40
2454150.462331389
  9
$TDUCREATE
 40
2454150.087331389
  9
$TDUPDATE
 40
2455447.417594213
  9
$TDUUPDATE
 40
2455447.042594213
  9
$TDINDWG
 40
0.0727720255
  9
$TDUSRTIMER
 40
0.0727720255
  9
$USRTIMER
 70
     1
  9
$ANGBASE
 50
0.0
  9
$ANGDIR
 70
     0
  9
$PDMODE
 70
     0
  9
$PDSIZE
 40
0.0
  9
$PLINEWID
 40
0.0
  9
$SPLFRAME
 70
     0
  9
$SPLINETYPE
 70
     6
  9
$SPLINESEGS
 70
     8
  9
$HANDSEED
  5
1A57
  9
$SURFTAB1
 70
     6
  9
$SURFTAB2
 70
     6
  9
$SURFTYPE
 70
     6
  9
$SURFU
 70
     6
  9
$SURFV
 70
     6
  9
$UCSBASE
  2

  9
$UCSNAME
  2

  9
$UCSORG
 10
0.0
 20
0.0
 30
0.0
  9
$UCSXDIR
 10
1.0
 20
0.0
 30
0.0
  9
$UCSYDIR
 10
0.0
 20
1.0
 30
0.0
  9
$UCSORTHOREF
  2

  9
$UCSORTHOVIEW
 70
     0
  9
$UCSORGTOP
 10
0.0
 20
0.0
 30
0.0
  9
$UCSORGBOTTOM
 10
0.0
 20
0.0
 30
0.0
  9
$UCSORGLEFT
 10
0.0
 20
0.0
 30
0.0
  9
$UCSORGRIGHT
 10
0.0
 20
0.0
 30
0.0
  9
$UCSORGFRONT
 10
0.0
 20
0.0
 30
0.0
  9
$UCSORGBACK
 10
0.0
 20
0.0
 30
0.0
  9
$PUCSBASE
  2

  9
$PUCSNAME
  2

  9
$PUCSORG
 10
0.0
 20
0.0
 30
0.0
  9
$PUCSXDIR
 10
1.0
 20
0.0
 30
0.0
  9
$PUCSYDIR
 10
0.0
 20
1.0
 30
0.0
  9
$PUCSORTHOREF
  2

  9
$PUCSORTHOVIEW
 70
     0
  9
$PUCSORGTOP
 10
0.0
 20
0.0
 30
0.0
  9
$PUCSORGBOTTOM
 10
0.0
 20
0.0
 30
0.0
  9
$PUCSORGLEFT
 10
0.0
 20
0.0
 30
0.0
  9
$PUCSORGRIGHT
 10
0.0
 20
0.0
 30
0.0
  9
$PUCSORGFRONT
 10
0.0
 20
0.0
 30
0.0
  9
$PUCSORGBACK
 10
0.0
 20
0.0
 30
0.0
  9
$USERI1
 70
     0
  9
$USERI2
 70
     0
  9
$USERI3
 70
     0
  9
$USERI4
 70
     0
  9
$USERI5
 70
     0
  9
$USERR1
 40
0.0
  9
$USERR2
 40
0.0
  9
$USERR3
 40
0.0
  9
$USERR4
 40
0.0
  9
$USERR5
 40
0.0
  9
$WORLDVIEW
 70
     1
  9
$SHADEDGE
 70
     3
  9
$SHADEDIF
 70
    70
  9
$TILEMODE
 70
     1
  9
$MAXACTVP
 70
    64
  9
$PINSBASE
 10
0.0
 20
0.0
 30
0.0
  9
$PLIMCHECK
 70
     0
  9
$PEXTMIN
 10
1.000000000000000E+20
 20
1.000000000000000E+20
 30
1.000000000000000E+20
  9
$PEXTMAX
 10
-1.000000000000000E+20
 20
-1.000000000000000E+20
 30
-1.000000000000000E+20
  9
$PLIMMIN
 10
0.0
 20
0.0
  9
$PLIMMAX
 10
12.0
 20
9.0
  9
$UNITMODE
 70
     0
  9
$VISRETAIN
 70
     1
  9
$PLINEGEN
 70
     0
  9
$PSLTSCALE
 70
     1
  9
$TREEDEPTH
 70
  3020
  9
$CMLSTYLE
  2
Standard
  9
$CMLJUST
 70
     0
  9
$CMLSCALE
 40
1.0
  9
$PROXYGRAPHICS
 70
     1
  9
$MEASUREMENT
 70
     0
  9
$CELWEIGHT
370
    -1
  9
$ENDCAPS
280
     0
  9
$JOINSTYLE
280
     0
  9
$LWDISPLAY
290
     0
  9
$INSUNITS
 70
     0
  9
$HYPERLINKBASE
  1

  9
$STYLESHEET
  1
monochrome.ctb
  9
$XEDIT
290
     1
  9
$CEPSNTYPE
380
     0
  9
$PSTYLEMODE
290
     1
  9
$FINGERPRINTGUID
  2
{54272A7C-C5AC-4BA8-BABB-1EE241A9F153}
  9
$VERSIONGUID
  2
{91728839-4DA2-48DD-9AD3-C9D78389E6C7}
  9
$EXTNAMES
290
     1
  9
$PSVPSCALE
 40
0.0
  9
$OLESTARTUP
290
     0
  0
ENDSEC
  0
SECTION
  2
CLASSES
  0
CLASS
  1
ACDBDICTIONARYWDFLT
  2
AcDbDictionaryWithDefault
  3
ObjectDBX Classes
 90
        0
280
     0
281
     0
  0
CLASS
  1
TABLESTYLE
  2
AcDbTableStyle
  3
ObjectDBX Classes
 90
     2047
280
     0
281
     0
  0
CLASS
  1
DICTIONARYVAR
  2
AcDbDictionaryVar
  3
ObjectDBX Classes
 90
        0
280
     0
281
     0
  0
CLASS
  1
SORTENTSTABLE
  2
AcDbSortentsTable
  3
ObjectDBX Classes
 90
        0
280
     0
281
     0
  0
CLASS
  1
ACDBPLACEHOLDER
  2
AcDbPlaceHolder
  3
ObjectDBX Classes
 90
        0
280
     0
281
     0
  0
CLASS
  1
LAYOUT
  2
AcDbLayout
  3
ObjectDBX Classes
 90
        0
280
     0
281
     0
  0
ENDSEC
  0
SECTION
  2
TABLES
  0
TABLE
  2
VPORT
  5
8
330
0
100
AcDbSymbolTable
 70
     5
  0
VPORT
  5
1A51
330
8
100
AcDbSymbolTableRecord
100
AcDbViewportTableRecord
  2
*Active
 70
     0
 10
0.0
 20
0.0
 11
1.0
 21
1.0
 12
341.5380732719724
 22
330.8123894356597
 13
0.0
 23
0.0
 14
1.0
 24
1.0
 15
0.0
 25
0.0
 16
0.0
 26
0.0
 36
1.0
 17
0.0
 27
0.0
 37
0.0
 40
291.2838830904457
 41
1.537760416666666
 42
50.0
 43
0.0
 44
0.0
 50
0.0
 51
0.0
 71
     0
 72
   100
 73
     1
 74
     1
 75
     0
 76
     0
 77
     0
 78
     0
281
     0
 65
     1
110
0.0
120
0.0
130
0.0
111
1.0
121
0.0
131
0.0
112
0.0
122
1.0
132
0.0
 79
     0
146
0.0
  0
ENDTAB
  0
TABLE
  2
LTYPE
  5
5
330
0
100
AcDbSymbolTable
 70
     3
  0
LTYPE
  5
13
330
5
100
AcDbSymbolTableRecord
100
AcDbLinetypeTableRecord
  2
ByBlock
 70
     0
  3

 72
    65
 73
     0
 40
0.0
  0
LTYPE
  5
14
330
5
100
AcDbSymbolTableRecord
100
AcDbLinetypeTableRecord
  2
ByLayer
 70
     0
  3

 72
    65
 73
     0
 40
0.0
  0
LTYPE
  5
15
330
5
100
AcDbSymbolTableRecord
100
AcDbLinetypeTableRecord
  2
CONTINUOUS
 70
     0
  3
Solid line
 72
    65
 73
     0
 40
0.0
  0
LTYPE
  5
37
330
5
100
AcDbSymbolTableRecord
100
AcDbLinetypeTableRecord
  2
CENTER
 70
     0
  3
Center ____ _ ____ _ ____ _ ____ _ ____ _ ____
 72
    65
 73
     4
 40
12.0
 49
7.5
 74
     0
 49
-1.5
 74
     0
 49
1.5
 74
     0
 49
-1.5
 74
     0
  0
LTYPE
  5
3D
330
5
100
AcDbSymbolTableRecord
100
AcDbLinetypeTableRecord
  2
DASHED
 70
     0
  3
Dashed __ __ __ __ __ __ __ __ __ __ __ __ __ _
 72
    65
 73
     2
 40
4.5
 49
3.0
 74
     0
 49
-1.5
 74
     0
  0
ENDTAB
  0
TABLE
  2
LAYER
  5
2
102
{ACAD_XDICTIONARY
360
15C1
102
}
330
0
100
AcDbSymbolTable
 70
     6
  0
LAYER
  5
10
330
2
100
AcDbSymbolTableRecord
100
AcDbLayerTableRecord
  2
0
 70
     0
 62
     7
  6
CONTINUOUS
370
    -3
390
F
  0
LAYER
  5
4C
330
2
100
AcDbSymbolTableRecord
100
AcDbLayerTableRecord
  2
8
 70
     0
 62
     7
  6
CONTINUOUS
370
    -3
390
F
  0
LAYER
  5
15F5
330
2
100
AcDbSymbolTableRecord
100
AcDbLayerTableRecord
  2
Defpoints
 70
     0
 62
     7
  6
CONTINUOUS
290
     0
370
    -3
390
F
  0
LAYER
  5
1947
330
2
100
AcDbSymbolTableRecord
100
AcDbLayerTableRecord
  2
001
 70
     0
 62
     7
  6
CONTINUOUS
370
    -3
390
F
  0
LAYER
  5
1948
330
2
100
AcDbSymbolTableRecord
100
AcDbLayerTableRecord
  2
KIKI
 70
     0
 62
     3
  6
CONTINUOUS
370
    -3
390
F
  0
LAYER
  5
1949
330
2
100
AcDbSymbolTableRecord
100
AcDbLayerTableRecord
  2
SIZE
 70
     0
 62
     3
  6
CONTINUOUS
370
    -3
390
F
  0
ENDTAB
  0
TABLE
  2
STYLE
  5
3
330
0
100
AcDbSymbolTable
 70
     1
  0
STYLE
  5
11
330
3
100
AcDbSymbolTableRecord
100
AcDbTextStyleTableRecord
  2
STANDARD
 70
     0
 40
0.0
 41
1.0
 50
0.0
 71
     0
 42
0.2
  3
monotxt.shx
  4
extfont.shx
  0
ENDTAB
  0
TABLE
  2
VIEW
  5
6
330
0
100
AcDbSymbolTable
 70
     0
  0
ENDTAB
  0
TABLE
  2
UCS
  5
7
330
0
100
AcDbSymbolTable
 70
     0
  0
ENDTAB
  0
TABLE
  2
APPID
  5
9
330
0
100
AcDbSymbolTable
 70
     3
  0
APPID
  5
12
330
9
100
AcDbSymbolTableRecord
100
AcDbRegAppTableRecord
  2
ACAD
 70
     0
  0
APPID
  5
C0F
330
9
100
AcDbSymbolTableRecord
100
AcDbRegAppTableRecord
  2
ACAD_PSEXT
 70
     0
  0
APPID
  5
1603
330
9
100
AcDbSymbolTableRecord
100
AcDbRegAppTableRecord
  2
ACAD_DSTYLE_DIMTEXT_FILL
 70
     0
  0
ENDTAB
  0
TABLE
  2
DIMSTYLE
  5
A
330
0
100
AcDbSymbolTable
 70
     3
100
AcDbDimStyleTable
 71
     1
340
52
  0
DIMSTYLE
105
52
102
{ACAD_REACTORS
330
18B1
330
18D0
102
}
330
A
100
AcDbSymbolTableRecord
100
AcDbDimStyleTableRecord
  2
STANDARD
 70
     0
 41
2.9
 42
0.0
 44
1.0
 73
     0
 74
     0
 77
     1
140
4.0
147
0.6
173
     1
279
     2
340
11
  0
DIMSTYLE
105
18DE
330
A
100
AcDbSymbolTableRecord
100
AcDbDimStyleTableRecord
  2
ISO-25
 70
     0
 41
2.5
 42
0.625
 43
3.75
 44
1.25
 73
     0
 74
     0
 77
     1
 78
     8
140
2.5
141
2.5
143
0.03937007874016
147
0.625
171
     3
172
     1
271
     2
272
     2
274
     3
278
    44
283
     0
284
     8
340
11
  0
DIMSTYLE
105
194A
330
A
100
AcDbSymbolTableRecord
100
AcDbDimStyleTableRecord
  2
kitamura
 70
     0
  4
"
 41
2.000000000000001
 42
0.4999999999999997
 43
10.0
 44
0.4999999999999997
 47
0.1
 48
0.1
 73
     0
 74
     0
 77
     3
 78
     8
 79
     2
140
3.000000000000001
141
0.0
143
0.0393701
146
0.71
147
1.0
172
     1
176
     2
177
     2
178
     2
271
     2
272
     2
283
     0
284
     8
340
11
341
1941
342
1941
371
    -1
372
    -1
  0
ENDTAB
  0
TABLE
  2
BLOCK_RECORD
  5
1
330
0
100
AcDbSymbolTable
 70
     6
  0
BLOCK_RECORD
  5
22
102
{ACAD_XDICTIONARY
360
19A0
102
}
330
1
100
AcDbSymbolTableRecord
100
AcDbBlockTableRecord
  2
*Model_Space
340
25
  0
BLOCK_RECORD
  5
1E
330
1
100
AcDbSymbolTableRecord
100
AcDbBlockTableRecord
  2
*Paper_Space
340
21
  0
BLOCK_RECORD
  5
18B2
330
1
100
AcDbSymbolTableRecord
100
AcDbBlockTableRecord
  2
*D0
340
0
  0
BLOCK_RECORD
  5
18D1
330
1
100
AcDbSymbolTableRecord
100
AcDbBlockTableRecord
  2
*D1
340
0
  0
BLOCK_RECORD
  5
18FE
330
1
100
AcDbSymbolTableRecord
100
AcDbBlockTableRecord
  2
_OPEN
340
0
  0
BLOCK_RECORD
  5
1904
330
1
100
AcDbSymbolTableRecord
100
AcDbBlockTableRecord
  2
A$C3F2C175B
340
0
  0
BLOCK_RECORD
  5
1941
330
1
100
AcDbSymbolTableRecord
100
AcDbBlockTableRecord
  2
_Open30
340
0
  0
BLOCK_RECORD
  5
19FF
102
{ACAD_XDICTIONARY
360
1A00
102
}
330
1
100
AcDbSymbolTableRecord
100
AcDbBlockTableRecord
  2
A$C257378AB
340
0
102
{BLKREFS
331
1A2A
102
}
  0
ENDTAB
  0
ENDSEC
  0
SECTION
  2
BLOCKS
  0
BLOCK
  5
23
330
22
100
AcDbEntity
  8
0
100
AcDbBlockBegin
  2
*Model_Space
 70
     0
 10
0.0
 20
0.0
 30
0.0
  3
*Model_Space
  1

  0
ENDBLK
  5
24
330
22
100
AcDbEntity
  8
0
100
AcDbBlockEnd
  0
BLOCK
  5
1F
330
1E
100
AcDbEntity
 67
     1
  8
0
100
AcDbBlockBegin
  2
*Paper_Space
 70
     0
 10
0.0
 20
0.0
 30
0.0
  3
*Paper_Space
  1

  0
ENDBLK
  5
20
330
1E
100
AcDbEntity
 67
     1
  8
0
100
AcDbBlockEnd
  0
BLOCK
  5
18BC
330
18B2
100
AcDbEntity
  8
0
100
AcDbBlockBegin
  2
*D0
 70
     1
 10
0.0
 20
0.0
 30
0.0
  3
*D0
  1

  0
LINE
  5
19E6
330
18B2
100
AcDbEntity
  8
0
  6
Continuous
 62
     0
370
    -2
100
AcDbLine
 10
212.6529281605417
 20
333.2709183768334
 30
0.0
 11
212.6529281605417
 21
398.4060228557756
 31
0.0
  0
LINE
  5
19E7
330
18B2
100
AcDbEntity
  8
0
  6
Continuous
 62
     0
370
    -2
100
AcDbLine
 10
314.6529281605417
 20
333.2709183768334
 30
0.0
 11
314.6529281605417
 21
398.4060228557756
 31
0.0
  0
LINE
  5
19E8
330
18B2
100
AcDbEntity
  8
0
  6
Continuous
 62
     0
370
    -2
100
AcDbLine
 10
214.6529281605417
 20
397.4060228557756
 30
0.0
 11
312.6529281605417
 21
397.4060228557756
 31
0.0
  0
SOLID
  5
19E9
330
18B2
100
AcDbEntity
  8
0
  6
Continuous
 62
     0
100
AcDbTrace
 10
214.6529281605417
 20
397.7393561891089
 30
0.0
 11
214.6529281605417
 21
397.0726895224423
 31
0.0
 12
212.6529281605417
 22
397.4060228557756
 32
0.0
 13
212.6529281605417
 23
397.4060228557756
 33
0.0
  0
SOLID
  5
19EA
330
18B2
100
AcDbEntity
  8
0
  6
Continuous
 62
     0
100
AcDbTrace
 10
312.6529281605417
 20
397.7393561891089
 30
0.0
 11
312.6529281605417
 21
397.0726895224423
 31
0.0
 12
314.6529281605417
 22
397.4060228557756
 32
0.0
 13
314.6529281605417
 23
397.4060228557756
 33
0.0
  0
MTEXT
  5
19EB
330
18B2
100
AcDbEntity
  8
0
  6
Continuous
 62
     0
100
AcDbMText
 10
263.6529281605417
 20
400.9060228557756
 30
0.0
 40
5.0
 41
0.0
 71
     5
 72
     1
  1
\A1;102
 73
     1
 44
1.0
1001
ACAD
1000
MTEXTBEGIN
1070
    73
1070
     1
1070
    44
1040
1.0
1070
    74
1070
     0
1000
MTEXTEND
  0
POINT
  5
19EC
330
18B2
100
AcDbEntity
  8
Defpoints
  6
Continuous
 62
     0
100
AcDbPoint
 10
212.6529281605417
 20
331.2709183768334
 30
0.0
  0
POINT
  5
19ED
330
18B2
100
AcDbEntity
  8
Defpoints
  6
Continuous
 62
     0
100
AcDbPoint
 10
314.6529281605417
 20
331.2709183768334
 30
0.0
  0
POINT
  5
19EE
330
18B2
100
AcDbEntity
  8
Defpoints
  6
Continuous
 62
     0
100
AcDbPoint
 10
314.6529281605417
 20
397.4060228557756
 30
0.0
  0
ENDBLK
  5
18BD
330
18B2
100
AcDbEntity
  8
0
100
AcDbBlockEnd
  0
BLOCK
  5
18DB
330
18D1
100
AcDbEntity
  8
0
100
AcDbBlockBegin
  2
*D1
 70
     1
 10
0.0
 20
0.0
 30
0.0
  3
*D1
  1

  0
LINE
  5
19EF
330
18D1
100
AcDbEntity
  8
0
  6
Continuous
 62
     0
370
    -2
100
AcDbLine
 10
423.6913367314468
 20
271.9509820626207
 30
0.0
 11
423.6913367314468
 21
256.1138667733255
 31
0.0
  0
LINE
  5
19F0
330
18D1
100
AcDbEntity
  8
0
  6
Continuous
 62
     0
370
    -2
100
AcDbLine
 10
406.1703752744321
 20
283.2785636819841
 30
0.0
 11
406.1703752744321
 21
256.1138667733255
 31
0.0
  0
LINE
  5
19F1
330
18D1
100
AcDbEntity
  8
0
  6
Continuous
 62
     0
370
    -2
100
AcDbLine
 10
421.6913367314468
 20
257.1138667733255
 30
0.0
 11
408.1703752744322
 21
257.1138667733255
 31
0.0
  0
SOLID
  5
19F2
330
18D1
100
AcDbEntity
  8
0
  6
Continuous
 62
     0
100
AcDbTrace
 10
421.6913367314468
 20
257.4472001066588
 30
0.0
 11
421.6913367314468
 21
256.7805334399922
 31
0.0
 12
423.6913367314468
 22
257.1138667733255
 32
0.0
 13
423.6913367314468
 23
257.1138667733255
 33
0.0
  0
SOLID
  5
19F3
330
18D1
100
AcDbEntity
  8
0
  6
Continuous
 62
     0
100
AcDbTrace
 10
408.1703752744322
 20
257.4472001066588
 30
0.0
 11
408.1703752744322
 21
256.7805334399922
 31
0.0
 12
406.1703752744321
 22
257.1138667733255
 32
0.0
 13
406.1703752744321
 23
257.1138667733255
 33
0.0
  0
MTEXT
  5
19F4
330
18D1
100
AcDbEntity
  8
0
  6
Continuous
 62
     0
100
AcDbMText
 10
414.9308560029394
 20
260.6138667733255
 30
0.0
 40
5.0
 41
0.0
 71
     5
 72
     1
  1
\A1;18
 73
     1
 44
1.0
1001
ACAD
1000
MTEXTBEGIN
1070
    73
1070
     1
1070
    44
1040
1.0
1070
    74
1070
     0
1000
MTEXTEND
  0
POINT
  5
19F5
330
18D1
100
AcDbEntity
  8
Defpoints
  6
Continuous
 62
     0
100
AcDbPoint
 10
423.6913367314468
 20
273.9509820626207
 30
0.0
  0
POINT
  5
19F6
330
18D1
100
AcDbEntity
  8
Defpoints
  6
Continuous
 62
     0
100
AcDbPoint
 10
406.1703752744321
 20
285.2785636819841
 30
0.0
  0
POINT
  5
19F7
330
18D1
100
AcDbEntity
  8
Defpoints
  6
Continuous
 62
     0
100
AcDbPoint
 10
406.1703752744321
 20
257.1138667733255
 30
0.0
  0
ENDBLK
  5
18DC
330
18D1
100
AcDbEntity
  8
0
100
AcDbBlockEnd
  0
BLOCK
  5
18FF
330
18FE
100
AcDbEntity
  8
0
100
AcDbBlockBegin
  2
_OPEN
 70
     0
 10
0.0
 20
0.0
 30
0.0
  3
_OPEN
  1

  0
LINE
  5
1900
330
18FE
100
AcDbEntity
  8
0
  6
ByBlock
 62
     0
100
AcDbLine
 10
-1.0
 20
0.1666666666666666
 30
0.0
 11
0.0
 21
0.0
 31
0.0
  0
LINE
  5
1901
330
18FE
100
AcDbEntity
  8
0
  6
ByBlock
 62
     0
100
AcDbLine
 10
0.0
 20
0.0
 30
0.0
 11
-1.0
 21
-0.1666666666666666
 31
0.0
  0
LINE
  5
1902
330
18FE
100
AcDbEntity
  8
0
  6
ByBlock
 62
     0
100
AcDbLine
 10
0.0
 20
0.0
 30
0.0
 11
-1.0
 21
0.0
 31
0.0
  0
ENDBLK
  5
1903
330
18FE
100
AcDbEntity
  8
0
100
AcDbBlockEnd
  0
BLOCK
  5
1905
330
1904
100
AcDbEntity
  8
0
100
AcDbBlockBegin
  2
A$C3F2C175B
 70
     0
 10
0.0
 20
0.0
 30
0.0
  3
A$C3F2C175B
  1

  0
LINE
  5
1906
330
1904
100
AcDbEntity
  8
SIZE
100
AcDbLine
 10
1997.093816819717
 20
553.0066668318904
 30
0.0
 11
40205.59601950965
 21
553.0066668318904
 31
0.0
  0
LINE
  5
1907
330
1904
100
AcDbEntity
  8
SIZE
100
AcDbLine
 10
1997.093816819717
 20
27785.06434276526
 30
0.0
 11
40205.59601950965
 21
27785.06434276527
 31
0.0
  0
LINE
  5
1908
330
1904
100
AcDbEntity
  8
SIZE
100
AcDbLine
 10
1997.093816819717
 20
27785.06434276527
 30
0.0
 11
1997.093816819717
 21
553.0066668318904
 31
0.0
  0
POINT
  5
1909
330
1904
100
AcDbEntity
  8
KIKI
100
AcDbPoint
 10
-0.000042129526264
 20
0.0000277652725345
 30
0.0
  0
LINE
  5
190A
330
1904
100
AcDbEntity
  8
SIZE
100
AcDbLine
 10
40205.59601950965
 20
553.0066668318904
 30
0.0
 11
40205.59601950965
 21
27785.06434276527
 31
0.0
  0
LINE
  5
190B
330
1904
100
AcDbEntity
  8
SIZE
100
AcDbLine
 10
22605.59601950965
 20
1413.00666683189
 30
0.0
 11
40205.59601950965
 21
1413.00666683189
 31
0.0
  0
LINE
  5
190C
330
1904
100
AcDbEntity
  8
SIZE
100
AcDbLine
 10
22605.59601950965
 20
2273.006666831891
 30
0.0
 11
40205.59601950965
 21
2273.006666831891
 31
0.0
  0
LINE
  5
190D
330
1904
100
AcDbEntity
  8
SIZE
100
AcDbLine
 10
22605.59601950965
 20
3153.006666831891
 30
0.0
 11
40205.59601950965
 21
3153.006666831891
 31
0.0
  0
TEXT
  5
190E
330
1904
100
AcDbEntity
  8
SIZE
100
AcDbText
 10
26755.59601950965
 20
643.0066668318905
 30
0.0
 40
250.0
  1
調
100
AcDbText
  0
LINE
  5
190F
330
1904
100
AcDbEntity
  8
SIZE
100
AcDbLine
 10
22605.59601950965
 20
2703.006666831891
 30
0.0
 11
33205.59601950965
 21
2703.006666831891
 31
0.0
  0
LINE
  5
1910
330
1904
100
AcDbEntity
  8
SIZE
100
AcDbLine
 10
22605.59601950965
 20
1843.00666683189
 30
0.0
 11
33205.59601950965
 21
1843.00666683189
 31
0.0
  0
LINE
  5
1911
330
1904
100
AcDbEntity
  8
SIZE
100
AcDbLine
 10
22605.59601950965
 20
983.0066668318904
 30
0.0
 11
33205.59601950965
 21
983.0066668318904
 31
0.0
  0
TEXT
  5
1912
330
1904
100
AcDbEntity
  8
SIZE
100
AcDbText
 10
23205.59601950965
 20
643.0066668318905
 30
0.0
 40
250.0
  1
計
100
AcDbText
  0
TEXT
  5
1913
330
1904
100
AcDbEntity
  8
SIZE
100
AcDbText
 10
22755.59601950965
 20
643.0066668318905
 30
0.0
 40
250.0
  1
設
100
AcDbText
  0
LINE
  5
1914
330
1904
100
AcDbEntity
  8
SIZE
100
AcDbLine
 10
26605.59601950965
 20
983.0066668318904
 30
0.0
 11
26605.59601950965
 21
553.0066668318904
 31
0.0
  0
LINE
  5
1915
330
1904
100
AcDbEntity
  8
SIZE
100
AcDbLine
 10
25105.59601950965
 20
983.0066668318904
 30
0.0
 11
25105.59601950965
 21
553.0066668318904
 31
0.0
  0
LINE
  5
1916
330
1904
100
AcDbEntity
  8
SIZE
100
AcDbLine
 10
23605.59601950965
 20
983.0066668318904
 30
0.0
 11
23605.59601950965
 21
553.0066668318904
 31
0.0
  0
LINE
  5
1917
330
1904
100
AcDbEntity
  8
SIZE
100
AcDbLine
 10
22605.59601950965
 20
3153.006666831891
 30
0.0
 11
22605.59601950965
 21
553.0066668318904
 31
0.0
  0
LINE
  5
1918
330
1904
100
AcDbEntity
  8
SIZE
100
AcDbLine
 10
23105.59601950965
 20
3153.006666831891
 30
0.0
 11
23105.59601950965
 21
983.0066668318904
 31
0.0
  0
TEXT
  5
1919
330
1904
100
AcDbEntity
  8
SIZE
100
AcDbText
 10
22730.59601950965
 20
1073.00666683189
 30
0.0
 40
250.0
  1
版
 41
0.833333
100
AcDbText
  0
TEXT
  5
191A
330
1904
100
AcDbEntity
  8
SIZE
100
AcDbText
 10
23255.59601950965
 20
1073.00666683189
 30
0.0
 40
250.0
  1
年
100
AcDbText
  0
LINE
  5
191B
330
1904
100
AcDbEntity
  8
SIZE
100
AcDbLine
 10
26105.59601950965
 20
3153.006666831891
 30
0.0
 11
26105.59601950965
 21
983.0066668318904
 31
0.0
  0
LINE
  5
191C
330
1904
100
AcDbEntity
  8
SIZE
100
AcDbLine
 10
24605.59601950965
 20
3153.006666831891
 30
0.0
 11
24605.59601950965
 21
983.0066668318904
 31
0.0
  0
TEXT
  5
191D
330
1904
100
AcDbEntity
  8
SIZE
100
AcDbText
 10
23730.59601950965
 20
1073.00666683189
 30
0.0
 40
250.0
  1
月
100
AcDbText
  0
TEXT
  5
191E
330
1904
100
AcDbEntity
  8
SIZE
100
AcDbText
 10
24205.59601950965
 20
1073.00666683189
 30
0.0
 40
250.0
  1
日
100
AcDbText
  0
TEXT
  5
191F
330
1904
100
AcDbEntity
  8
SIZE
100
AcDbText
 10
24755.59601950965
 20
1073.00666683189
 30
0.0
 40
250.0
  1
設
100
AcDbText
  0
TEXT
  5
1920
330
1904
100
AcDbEntity
  8
SIZE
100
AcDbText
 10
25705.59601950965
 20
1073.00666683189
 30
0.0
 40
250.0
  1
計
100
AcDbText
  0
TEXT
  5
1921
330
1904
100
AcDbEntity
  8
SIZE
100
AcDbText
 10
26255.59601950965
 20
1073.00666683189
 30
0.0
 40
250.0
  1
調
100
AcDbText
  0
TEXT
  5
1922
330
1904
100
AcDbEntity
  8
SIZE
100
AcDbText
 10
27255.59601950965
 20
643.0066668318905
 30
0.0
 40
250.0
  1
査
100
AcDbText
  0
TEXT
  5
1923
330
1904
100
AcDbEntity
  8
SIZE
100
AcDbText
 10
31305.59601950965
 20
643.0066668318905
 30
0.0
 40
250.0
  1
認
100
AcDbText
  0
LINE
  5
1924
330
1904
100
AcDbEntity
  8
SIZE
100
AcDbLine
 10
31705.59601950965
 20
983.0066668318904
 30
0.0
 11
31705.59601950965
 21
553.0066668318904
 31
0.0
  0
LINE
  5
1925
330
1904
100
AcDbEntity
  8
SIZE
100
AcDbLine
 10
29160.59601950965
 20
983.0066668318904
 30
0.0
 11
29160.59601950965
 21
553.0066668318904
 31
0.0
  0
LINE
  5
1926
330
1904
100
AcDbEntity
  8
SIZE
100
AcDbLine
 10
30705.59601950965
 20
983.0066668318904
 30
0.0
 11
30705.59601950965
 21
553.0066668318904
 31
0.0
  0
LINE
  5
1927
330
1904
100
AcDbEntity
  8
SIZE
100
AcDbLine
 10
27655.59601950965
 20
3153.006666831891
 30
0.0
 11
27655.59601950965
 21
553.0066668318904
 31
0.0
  0
LINE
  5
1928
330
1904
100
AcDbEntity
  8
SIZE
100
AcDbLine
 10
33205.59601950965
 20
3153.006666831891
 30
0.0
 11
33205.59601950965
 21
553.0066668318904
 31
0.0
  0
TEXT
  5
1929
330
1904
100
AcDbEntity
  8
SIZE
100
AcDbText
 10
30855.59601950965
 20
643.0066668318905
 30
0.0
 40
250.0
  1
承
100
AcDbText
  0
TEXT
  5
192A
330
1904
100
AcDbEntity
  8
SIZE
100
AcDbText
 10
27255.59601950965
 20
1073.00666683189
 30
0.0
 40
250.0
  1
査
100
AcDbText
  0
TEXT
  5
192B
330
1904
100
AcDbEntity
  8
SIZE
100
AcDbText
 10
27805.59601950965
 20
1073.00666683189
 30
0.0
 40
250.0
  1
変
100
AcDbText
  0
TEXT
  5
192C
330
1904
100
AcDbEntity
  8
SIZE
100
AcDbText
 10
29472.26264550966
 20
1073.00666683189
 30
0.0
 40
250.0
  1
更
100
AcDbText
  0
TEXT
  5
192D
330
1904
100
AcDbEntity
  8
SIZE
100
AcDbText
 10
31138.92927150965
 20
1073.00666683189
 30
0.0
 40
250.0
  1
内
100
AcDbText
  0
TEXT
  5
192E
330
1904
100
AcDbEntity
  8
SIZE
100
AcDbText
 10
32805.59589750966
 20
1073.00666683189
 30
0.0
 40
250.0
  1
容
100
AcDbText
  0
LINE
  5
192F
330
1904
100
AcDbEntity
  8
SIZE
100
AcDbLine
 10
38955.59601950965
 20
1853.00666683189
 30
0.0
 11
40205.59601950965
 21
1853.00666683189
 31
0.0
  0
TEXT
  5
1930
330
1904
100
AcDbEntity
  8
SIZE
100
AcDbText
 10
33355.59601950965
 20
733.0066668318904
 30
0.0
 40
500.0
  1
富士通株式会社
 41
0.972222
100
AcDbText
  0
TEXT
  5
1931
330
1904
100
AcDbEntity
  8
SIZE
100
AcDbText
 10
39105.59601650966
 20
841.3998042283274
 30
0.0
 40
250.0
  1
/
 50
0.0000010000000028
100
AcDbText
  0
LINE
  5
1932
330
1904
100
AcDbEntity
  8
SIZE
100
AcDbLine
 10
38005.59601950965
 20
1413.00666683189
 30
0.0
 11
38005.59601950965
 21
553.0066668318904
 31
0.0
  0
LINE
  5
1933
330
1904
100
AcDbEntity
  8
SIZE
100
AcDbLine
 10
37505.59601950965
 20
1413.00666683189
 30
0.0
 11
37505.59601950965
 21
553.0066668318904
 31
0.0
  0
TEXT
  5
1934
330
1904
100
AcDbEntity
  8
SIZE
100
AcDbText
 10
37630.92792850965
 20
587.4114858318899
 30
0.0
 40
250.0
  1
ジ
100
AcDbText
  0
LINE
  5
1935
330
1904
100
AcDbEntity
  8
SIZE
100
AcDbLine
 10
33705.59601950965
 20
3153.006666831891
 30
0.0
 11
33705.59601950965
 21
1413.00666683189
 31
0.0
  0
TEXT
  5
1936
330
1904
100
AcDbEntity
  8
SIZE
100
AcDbText
 10
33330.59601950965
 20
1973.00666683189
 30
0.0
 40
250.0
  1
図
100
AcDbText
  0
TEXT
  5
1937
330
1904
100
AcDbEntity
  8
SIZE
100
AcDbText
 10
33330.59601950965
 20
1523.00666683189
 30
0.0
 40
250.0
  1
番
100
AcDbText
  0
TEXT
  5
1938
330
1904
100
AcDbEntity
  8
SIZE
100
AcDbText
 10
33330.59601950965
 20
2403.006666831891
 30
0.0
 40
250.0
  1
称
100
AcDbText
  0
TEXT
  5
1939
330
1904
100
AcDbEntity
  8
SIZE
100
AcDbText
 10
33330.59601950965
 20
2853.006666831891
 30
0.0
 40
250.0
  1
名
100
AcDbText
  0
TEXT
  5
193A
330
1904
100
AcDbEntity
  8
SIZE
100
AcDbText
 10
37630.59601950965
 20
1113.00666683189
 30
0.0
 40
250.0
  1
ぺ
100
AcDbText
  0
LINE
  5
193B
330
1904
100
AcDbEntity
  8
SIZE
100
AcDbLine
 10
37755.59601950965
 20
1113.00666683189
 30
0.0
 11
37755.59601950965
 21
897.6495678318897
 31
0.0
  0
TEXT
  5
193C
330
1904
100
AcDbEntity
  8
SIZE
100
AcDbText
 10
39480.59601950965
 20
1963.00666683189
 30
0.0
 40
200.0
  1
出
100
AcDbText
  0
TEXT
  5
193D
330
1904
100
AcDbEntity
  8
SIZE
100
AcDbText
 10
39005.59601950965
 20
1963.00666683189
 30
0.0
 40
200.0
  1
提
100
AcDbText
  0
LINE
  5
193E
330
1904
100
AcDbEntity
  8
SIZE
100
AcDbLine
 10
38955.59601950965
 20
2273.006666831891
 30
0.0
 11
38955.59601950965
 21
1413.00666683189
 31
0.0
  0
TEXT
  5
193F
330
1904
100
AcDbEntity
  8
SIZE
100
AcDbText
 10
39955.59601950965
 20
1963.00666683189
 30
0.0
 40
200.0
  1
先
100
AcDbText
  0
ENDBLK
  5
1940
330
1904
100
AcDbEntity
  8
0
100
AcDbBlockEnd
  0
BLOCK
  5
1942
330
1941
100
AcDbEntity
  8
0
100
AcDbBlockBegin
  2
_Open30
 70
     0
 10
0.0
 20
0.0
 30
0.0
  3
_Open30
  1

  0
LINE
  5
1943
330
1941
100
AcDbEntity
  8
0
  6
ByBlock
 62
     0
370
    -2
100
AcDbLine
 10
-1.0
 20
0.26794919
 30
0.0
 11
0.0
 21
0.0
 31
0.0
  0
LINE
  5
1944
330
1941
100
AcDbEntity
  8
0
  6
ByBlock
 62
     0
370
    -2
100
AcDbLine
 10
0.0
 20
0.0
 30
0.0
 11
-1.0
 21
-0.26794919
 31
0.0
  0
LINE
  5
1945
330
1941
100
AcDbEntity
  8
0
  6
ByBlock
 62
     0
370
    -2
100
AcDbLine
 10
0.0
 20
0.0
 30
0.0
 11
-1.0
 21
0.0
 31
0.0
  0
ENDBLK
  5
1946
330
1941
100
AcDbEntity
  8
0
100
AcDbBlockEnd
  0
BLOCK
  5
1A02
330
19FF
100
AcDbEntity
  8
0
100
AcDbBlockBegin
  2
A$C257378AB
 70
     0
 10
0.0
 20
0.0
 30
0.0
  3
A$C257378AB
  1

  0
CIRCLE
  5
1A03
330
19FF
100
AcDbEntity
  8
0
  6
DASHED
100
AcDbCircle
 10
28.99999986296314
 20
28.99999974412029
 30
0.0
 40
2.0
  0
ARC
  5
1A04
330
19FF
100
AcDbEntity
  8
0
  6
Continuous
100
AcDbCircle
 10
28.99999986296314
 20
28.99999974412029
 30
0.0
 40
1.519868415357033
100
AcDbArc
 50
270.0
 51
90.0
  0
ARC
  5
1A05
330
19FF
100
AcDbEntity
  8
0
  6
Continuous
100
AcDbCircle
 10
28.99999986296314
 20
28.99999974412029
 30
0.0
 40
1.519868415357033
100
AcDbArc
 50
90.0
 51
270.0
  0
CIRCLE
  5
1A06
330
19FF
100
AcDbEntity
  8
0
100
AcDbCircle
 10
28.99999986296314
 20
28.99999974412029
 30
0.0
 40
29.0
  0
LINE
  5
1A07
330
19FF
100
AcDbEntity
  8
0
100
AcDbLine
 10
13.56833507106211
 20
50.94999974412033
 30
0.0
 11
44.43166465486416
 21
50.94999974412033
 31
0.0
  0
LINE
  5
1A08
330
19FF
100
AcDbEntity
  8
0
100
AcDbLine
 10
51.2472194251826
 20
43.99999974412028
 30
0.0
 11
6.752780300743665
 21
43.99999974412028
 31
0.0
  0
LINE
  5
1A09
330
19FF
100
AcDbEntity
  8
0
100
AcDbLine
 10
6.391676655577782
 20
43.44999974412033
 30
0.0
 11
51.60832307034849
 21
43.44999974412033
 31
0.0
  0
LINE
  5
1A0A
330
19FF
100
AcDbEntity
  8
0
100
AcDbLine
 10
54.76215773550172
 20
36.49999974412029
 30
0.0
 11
3.237841990424556
 21
36.49999974412029
 31
0.0
  0
LINE
  5
1A0B
330
19FF
100
AcDbEntity
  8
0
100
AcDbLine
 10
3.084053454436968
 20
35.94999974412034
 30
0.0
 11
54.91594627148931
 21
35.94999974412033
 31
0.0
  0
LINE
  5
1A0C
330
19FF
100
AcDbEntity
  8
0
100
AcDbLine
 10
55.8316747687457
 20
28.99999974412029
 30
0.0
 11
2.168324957180573
 21
28.99999974412029
 31
0.0
  0
LINE
  5
1A0D
330
19FF
100
AcDbEntity
  8
0
100
AcDbLine
 10
2.173962543791276
 20
28.44999974412033
 30
0.0
 11
55.82603718213499
 21
28.44999974412033
 31
0.0
  0
LINE
  5
1A0E
330
19FF
100
AcDbEntity
  8
0
100
AcDbLine
 10
54.76215773550172
 20
21.49999974412029
 30
0.0
 11
3.237841990424556
 21
21.49999974412029
 31
0.0
  0
LINE
  5
1A0F
330
19FF
100
AcDbEntity
  8
0
100
AcDbLine
 10
3.404369801376446
 20
20.94999974412033
 30
0.0
 11
54.59562992454983
 21
20.94999974412033
 31
0.0
  0
LINE
  5
1A10
330
19FF
100
AcDbEntity
  8
0
100
AcDbLine
 10
51.2472194251826
 20
13.99999974412029
 30
0.0
 11
6.752780300743665
 21
13.99999974412029
 31
0.0
  0
LINE
  5
1A11
330
19FF
100
AcDbEntity
  8
0
100
AcDbLine
 10
7.133672364967424
 20
13.44999974412033
 30
0.0
 11
50.86632736095879
 21
13.44999974412033
 31
0.0
  0
LINE
  5
1A12
330
19FF
100
AcDbEntity
  8
0
100
AcDbLine
 10
43.61809749054794
 20
6.499999744120287
 30
0.0
 11
14.38190223537833
 21
6.499999744120287
 31
0.0
  0
ARC
  5
1A13
330
19FF
100
AcDbEntity
  8
0
100
AcDbCircle
 10
28.99999986296314
 20
28.99999974412029
 30
0.0
 40
26.83167490578253
100
AcDbArc
 50
58.79647264117974
 51
121.2035273588202
  0
ARC
  5
1A14
330
19FF
100
AcDbEntity
  8
0
100
AcDbCircle
 10
28.99999986296314
 20
28.99999974412029
 30
0.0
 40
26.83167490578253
100
AcDbArc
 50
241.1434212375186
 51
298.8565787624814
  0
LINE
  5
1A15
330
19FF
100
AcDbEntity
  8
0
100
AcDbLine
 10
15.099054634325
 20
51.94999974412036
 30
0.0
 11
42.90094509160127
 21
51.94999974412034
 31
0.0
  0
LINE
  5
1A16
330
19FF
100
AcDbEntity
  8
0
100
AcDbLine
 10
16.05052967111356
 20
5.499999744120287
 30
0.0
 11
41.9494700548127
 21
5.499999744120287
 31
0.0
  0
ARC
  5
1A17
330
19FF
100
AcDbEntity
  8
0
100
AcDbCircle
 10
28.99999986296314
 20
28.99999974412029
 30
0.0
 40
26.83167490578254
100
AcDbArc
 50
125.1086416769215
 51
146.0105139901572
  0
ARC
  5
1A18
330
19FF
100
AcDbEntity
  8
0
100
AcDbCircle
 10
28.99999986296314
 20
28.99999974412029
 30
0.0
 40
26.83167490578254
100
AcDbArc
 50
147.4155175931015
 51
163.7684183414743
  0
ARC
  5
1A19
330
19FF
100
AcDbEntity
  8
0
100
AcDbCircle
 10
28.99999986296314
 20
28.99999974412029
 30
0.0
 40
26.83167490578254
100
AcDbArc
 50
164.9879479447772
 51
180.0
  0
ARC
  5
1A1A
330
19FF
100
AcDbEntity
  8
0
100
AcDbCircle
 10
28.99999986296314
 20
28.99999974412029
 30
0.0
 40
26.83167490578254
100
AcDbArc
 50
181.1745403917137
 51
196.2315816585257
  0
ARC
  5
1A1B
330
19FF
100
AcDbEntity
  8
0
100
AcDbCircle
 10
28.99999986296314
 20
28.99999974412029
 30
0.0
 40
26.83167490578254
100
AcDbArc
 50
197.4587168365933
 51
213.9894860098427
  0
ARC
  5
1A1C
330
19FF
100
AcDbEntity
  8
0
100
AcDbCircle
 10
28.99999986296314
 20
28.99999974412029
 30
0.0
 40
26.83167490578254
100
AcDbArc
 50
215.4181195311724
 51
236.9884904132387
  0
ARC
  5
1A1D
330
19FF
100
AcDbEntity
  8
0
100
AcDbCircle
 10
28.99999986296314
 20
28.99999974412029
 30
0.0
 40
26.83167490578254
100
AcDbArc
 50
303.0115095867613
 51
324.5818804688276
  0
ARC
  5
1A1E
330
19FF
100
AcDbEntity
  8
0
100
AcDbCircle
 10
28.99999986296314
 20
28.99999974412029
 30
0.0
 40
26.83167490578254
100
AcDbArc
 50
326.0105139901573
 51
342.5412831634066
  0
ARC
  5
1A1F
330
19FF
100
AcDbEntity
  8
0
100
AcDbCircle
 10
28.99999986296314
 20
28.99999974412029
 30
0.0
 40
26.83167490578254
100
AcDbArc
 50
343.7684183414743
 51
358.8254596082863
  0
ARC
  5
1A20
330
19FF
100
AcDbEntity
  8
0
100
AcDbCircle
 10
28.99999986296314
 20
28.99999974412029
 30
0.0
 40
26.83167490578254
100
AcDbArc
 50
0.0
 51
32.5844824068985
  0
ARC
  5
1A21
330
19FF
100
AcDbEntity
  8
0
100
AcDbCircle
 10
28.99999986296314
 20
28.99999974412029
 30
0.0
 40
26.83167490578254
100
AcDbArc
 50
33.98948600984271
 51
54.89135832307854
  0
ENDBLK
  5
1A22
330
19FF
100
AcDbEntity
  8
0
100
AcDbBlockEnd
  0
ENDSEC
  0
SECTION
  2
ENTITIES
  0
POINT
  5
82B
330
22
100
AcDbEntity
  8
0
  6
Continuous
100
AcDbPoint
 10
408.4413367314468
 20
356.112425592227
 30
0.0
  0
POINT
  5
82C
330
22
100
AcDbEntity
  8
0
  6
Continuous
100
AcDbPoint
 10
408.4413367314468
 20
287.6124255922269
 30
0.0
  0
LINE
  5
82D
330
22
100
AcDbEntity
  8
0
  6
Continuous
100
AcDbLine
 10
409.6913367314468
 20
298.8624255922269
 30
0.0
 11
409.6913367314468
 21
344.8624255922269
 31
0.0
  0
LINE
  5
82E
330
22
100
AcDbEntity
  8
0
  6
Continuous
100
AcDbLine
 10
410.8913367314468
 20
298.8624255922269
 30
0.0
 11
410.8913367314468
 21
344.8624255922269
 31
0.0
  0
LINE
  5
82F
330
22
100
AcDbEntity
  8
0
  6
Continuous
100
AcDbLine
 10
417.9913367314467
 20
316.362425592227
 30
0.0
 11
417.9913367314467
 21
327.3624255922269
 31
0.0
  0
LINE
  5
830
330
22
100
AcDbEntity
  8
0
  6
Continuous
100
AcDbLine
 10
418.9913367314467
 20
316.362425592227
 30
0.0
 11
418.9913367314467
 21
327.3624255922269
 31
0.0
  0
LINE
  5
831
330
22
100
AcDbEntity
  8
0
  6
Continuous
100
AcDbLine
 10
423.6913367314468
 20
274.4270093324807
 30
0.0
 11
423.6913367314466
 21
283.7625017489985
 31
0.0
  0
LINE
  5
832
330
22
100
AcDbEntity
  8
0
  6
Continuous
100
AcDbLine
 10
423.6913367314468
 20
359.962349435453
 30
0.0
 11
423.6913363679245
 21
369.2978418488202
 31
0.0
  0
LINE
  5
833
330
22
100
AcDbEntity
  8
0
  6
Continuous
100
AcDbLine
 10
416.9913367314467
 20
352.8624255922271
 30
0.0
 11
416.9913367314467
 21
359.3624255922271
 31
0.0
  0
LINE
  5
834
330
22
100
AcDbEntity
  8
0
  6
Continuous
100
AcDbLine
 10
416.9913367314467
 20
284.3624255922269
 30
0.0
 11
416.9913367314467
 21
290.8624255922269
 31
0.0
  0
LINE
  5
836
330
22
100
AcDbEntity
  8
0
  6
CENTER
100
AcDbLine
 10
417.9913367314467
 20
356.112425592227
 30
0.0
 11
407.8816872818599
 21
356.112425592227
 31
0.0
  0
LINE
  5
837
330
22
100
AcDbEntity
  8
0
  6
Continuous
100
AcDbLine
 10
417.9913367314467
 20
353.612425592227
 30
0.0
 11
410.9413367314468
 21
353.612425592227
 31
0.0
  0
LINE
  5
838
330
22
100
AcDbEntity
  8
0
  6
Continuous
100
AcDbLine
 10
417.9913367314467
 20
358.6124255922271
 30
0.0
 11
410.9413367314468
 21
358.6124255922271
 31
0.0
  0
ARC
  5
839
330
22
100
AcDbEntity
  8
0
  6
Continuous
100
AcDbCircle
 10
410.9413367314468
 20
356.112425592227
 30
0.0
 40
2.499999999999985
100
AcDbArc
 50
90.0
 51
270.0
  0
LINE
  5
83A
330
22
100
AcDbEntity
  8
0
  6
CENTER
 62
     1
100
AcDbLine
 10
433.9906126244197
 20
321.8624255922269
 30
0.0
 11
403.9380108101497
 21
321.8624255922269
 31
0.0
  0
LINE
  5
83B
330
22
100
AcDbEntity
  8
0
  6
CENTER
100
AcDbLine
 10
417.9913367314467
 20
287.6124255922269
 30
0.0
 11
407.8816872818599
 21
287.6124255922269
 31
0.0
  0
LINE
  5
83C
330
22
100
AcDbEntity
  8
0
  6
Continuous
100
AcDbLine
 10
417.9913367314467
 20
290.1124255922269
 30
0.0
 11
410.9413367314468
 21
290.1124255922269
 31
0.0
  0
LINE
  5
83D
330
22
100
AcDbEntity
  8
0
  6
Continuous
100
AcDbLine
 10
417.9913367314467
 20
285.112425592227
 30
0.0
 11
410.9413367314468
 21
285.112425592227
 31
0.0
  0
ARC
  5
83E
330
22
100
AcDbEntity
  8
0
  6
Continuous
100
AcDbCircle
 10
410.9413367314468
 20
287.6124255922269
 30
0.0
 40
2.5
100
AcDbArc
 50
90.0
 51
270.0
  0
LWPOLYLINE
  5
843
330
22
100
AcDbEntity
  8
0
  6
Continuous
100
AcDbPolyline
 90
        7
 70
     0
 43
0.0
 10
405.9913367314467
 20
323.3822940075841
 42
0.0203141152587286
 10
405.8803243963947
 20
323.0773088728227
 42
0.0202445988987998
 10
405.7943708388439
 20
322.7643198408212
 42
0.0203141154686643
 10
405.734049203097
 20
322.4454139437112
 42
0.0162548765624955
 10
405.7124541804943
 20
322.2518062905566
 42
0.0081239970312036
 10
405.700316042091
 20
322.0572671758461
 10
405.691336731447
 20
321.8624255922269
  0
LWPOLYLINE
  5
84C
330
22
100
AcDbEntity
  8
0
  6
Continuous
100
AcDbPolyline
 90
        7
 70
     0
 43
0.0
 10
405.691336731447
 20
321.8624255922269
 10
405.700316042091
 20
321.6675840086077
 42
0.0081239970307819
 10
405.7124541804943
 20
321.4730448938974
 42
0.0162548765603735
 10
405.734049203097
 20
321.2794372407428
 42
0.02031411546936
 10
405.7943708388439
 20
320.9605313436329
 42
0.0202445988982092
 10
405.8803243963947
 20
320.6475423116312
 42
0.0203141152586705
 10
405.9913367314467
 20
320.34255717687
  0
LINE
  5
855
330
22
100
AcDbEntity
  8
0
  6
Continuous
100
AcDbLine
 10
405.9913367314467
 20
320.34255717687
 30
0.0
 11
405.9913367314467
 21
292.2357312816649
 31
0.0
  0
LINE
  5
856
330
22
100
AcDbEntity
  8
0
  6
Continuous
100
AcDbLine
 10
405.9913367314469
 20
292.2357312816649
 30
0.0
 11
405.9928597798829
 21
292.0612072172921
 31
0.0
  0
LINE
  5
857
330
22
100
AcDbEntity
  8
0
  6
Continuous
100
AcDbLine
 10
405.9928597798829
 20
292.0612072172921
 30
0.0
 11
406.0993718667274
 21
285.9591338487611
 31
0.0
  0
LWPOLYLINE
  5
858
330
22
100
AcDbEntity
  8
0
  6
Continuous
100
AcDbPolyline
 90
        4
 70
     0
 43
0.0
 10
406.0993718667274
 20
285.9591338487611
 42
0.0430408962133511
 10
406.1703752744321
 20
285.2785636819841
 42
0.0423989826087094
 10
406.3558361756077
 20
284.6197598059051
 42
0.0430408962142267
 10
406.650300495984
 20
284.0020964673152
  0
LINE
  5
85E
330
22
100
AcDbEntity
  8
0
  6
Continuous
100
AcDbLine
 10
406.650300495984
 20
284.0020964673152
 30
0.0
 11
413.1402386282613
 21
272.9601648689081
 31
0.0
  0
LWPOLYLINE
  5
85F
330
22
100
AcDbEntity
  8
0
  6
Continuous
100
AcDbPolyline
 90
        7
 70
     0
 43
0.0
 10
413.1402386282613
 20
272.9601648689081
 42
0.0428053300427185
 10
413.5340919535744
 20
272.4054711979776
 42
0.0421317338570191
 10
414.0161049188679
 20
271.9248659144899
 42
0.0428053300433141
 10
414.5719481153351
 20
271.5326365793153
 42
0.0428053300414841
 10
415.1867584065106
 20
271.241408462034
 42
0.0421317338573536
 10
415.842234811284
 20
271.0579183532742
 42
0.0428053300418222
 10
416.5188911538811
 20
270.9876210954777
  0
LINE
  5
868
330
22
100
AcDbEntity
  8
0
  6
Continuous
100
AcDbLine
 10
416.5188911538811
 20
270.9876210954777
 30
0.0
 11
423.0861010095159
 21
270.8729900210502
 31
0.0
  0
LWPOLYLINE
  5
869
330
22
100
AcDbEntity
  8
0
  6
Continuous
100
AcDbPolyline
 90
        7
 70
     0
 43
0.0
 10
423.0861010095159
 20
270.8729900210502
 42
0.0670193931995898
 10
423.1646384914542
 20
270.8823171621896
 42
0.0645012547219012
 10
423.2382200538939
 20
270.9116732289325
 42
0.0670193931734594
 10
423.3016095107371
 20
270.958969194851
 42
0.0670193931754137
 10
423.3500045718155
 20
271.0215235687527
 42
0.0645012546322383
 10
423.3806403428213
 20
271.0945815903559
 42
0.0670193931779631
 10
423.3913367314472
 20
271.1729443295971
  0
LINE
  5
872
330
22
100
AcDbEntity
  8
0
  6
Continuous
100
AcDbLine
 10
423.3913367314472
 20
271.1729443295971
 30
0.0
 11
423.3913367314472
 21
272.1507131766864
 31
0.0
  0
LINE
  5
873
330
22
100
AcDbEntity
  8
0
  6
Continuous
100
AcDbLine
 10
423.3913367314472
 20
272.1507131766864
 30
0.0
 11
420.3380387212174
 21
272.2040086917001
 31
0.0
  0
LINE
  5
874
330
22
100
AcDbEntity
  8
0
  6
Continuous
100
AcDbLine
 10
420.3380387212174
 20
272.2040086917001
 30
0.0
 11
419.5781608202806
 21
272.0700217157208
 31
0.0
  0
LWPOLYLINE
  5
875
330
22
100
AcDbEntity
  8
0
  6
Continuous
100
AcDbPolyline
 90
        7
 70
     0
 43
0.0
 10
419.5781608202806
 20
272.0700217157208
 42
-0.0420952664630916
 10
419.4948533402411
 20
272.0625112877011
 42
-0.0414542492127971
 10
419.4114099464814
 20
272.068929505665
 42
-0.0420952663531512
 10
419.3302309657014
 20
272.0890917436133
 42
-0.042095266375733
 10
419.2536079685624
 20
272.1226396059743
 42
-0.0414542493345273
 10
419.1835753435816
 20
272.1684590878816
 42
-0.0420952664241741
 10
419.1221476442429
 20
272.2252321493944
  0
LINE
  5
87E
330
22
100
AcDbEntity
  8
0
  6
Continuous
100
AcDbLine
 10
419.1221476442429
 20
272.2252321493944
 30
0.0
 11
416.6663367314468
 21
272.2680984883286
 31
0.0
  0
LINE
  5
87F
330
22
100
AcDbEntity
  8
0
  6
Continuous
100
AcDbLine
 10
416.6663367314468
 20
272.2680984883286
 30
0.0
 11
416.6663367314468
 21
272.8624255922269
 31
0.0
  0
LINE
  5
880
330
22
100
AcDbEntity
  8
0
  6
Continuous
100
AcDbLine
 10
416.6663367314468
 20
272.8624255922269
 30
0.0
 11
416.1763222197144
 21
272.8709788273451
 31
0.0
  0
LWPOLYLINE
  5
881
330
22
100
AcDbEntity
  8
0
  6
Continuous
100
AcDbPolyline
 90
        7
 70
     0
 43
0.0
 10
416.1763222197144
 20
272.8709788273451
 42
-0.0428053301528129
 10
415.8379940488248
 20
272.9061274564121
 42
-0.0421317335708318
 10
415.5102558457675
 20
272.9978725109797
 42
-0.0428053301499951
 10
415.2028507004414
 20
273.1434865692639
 42
-0.0428053301532948
 10
414.9249291026469
 20
273.3396012367986
 42
-0.0421317335715215
 10
414.6839226195072
 20
273.5799038790341
 42
-0.0428053301525077
 10
414.4869959569045
 20
273.8572507140602
  0
LINE
  5
88A
330
22
100
AcDbEntity
  8
0
  6
Continuous
100
AcDbLine
 10
414.4869959569045
 20
273.8572507140602
 30
0.0
 11
407.9758721515067
 21
284.9352274563031
 31
0.0
  0
LWPOLYLINE
  5
88B
330
22
100
AcDbEntity
  8
0
  6
Continuous
100
AcDbPolyline
 90
        4
 70
     0
 43
0.0
 10
407.9758721515067
 20
284.9352274563031
 42
-0.043040896212396
 10
407.8286399913185
 20
285.2440591255982
 42
-0.0423989826065355
 10
407.7359095407308
 20
285.5734610636377
 42
-0.0430408962097105
 10
407.7004078368784
 20
285.9137461470261
  0
LINE
  5
891
330
22
100
AcDbEntity
  8
0
  6
Continuous
100
AcDbLine
 10
407.7004078368784
 20
285.9137461470261
 30
0.0
 11
407.5913367314468
 21
292.162425592227
 31
0.0
  0
LINE
  5
892
330
22
100
AcDbEntity
  8
0
  6
Continuous
100
AcDbLine
 10
407.5913367314468
 20
292.162425592227
 30
0.0
 11
406.991336731447
 21
292.172898631184
 31
0.0
  0
LINE
  5
893
330
22
100
AcDbEntity
  8
0
  6
Continuous
100
AcDbLine
 10
406.991336731447
 20
292.172898631184
 30
0.0
 11
406.991336731447
 21
351.5519525532701
 31
0.0
  0
LINE
  5
894
330
22
100
AcDbEntity
  8
0
  6
Continuous
100
AcDbLine
 10
406.991336731447
 20
351.5519525532701
 30
0.0
 11
407.5913367314468
 21
351.562425592227
 31
0.0
  0
LINE
  5
895
330
22
100
AcDbEntity
  8
0
  6
Continuous
100
AcDbLine
 10
407.5913367314468
 20
351.562425592227
 30
0.0
 11
407.7004078368784
 21
357.8111050374279
 31
0.0
  0
LWPOLYLINE
  5
896
330
22
100
AcDbEntity
  8
0
  6
Continuous
100
AcDbPolyline
 90
        4
 70
     0
 43
0.0
 10
407.7004078368784
 20
357.8111050374279
 42
-0.0430408962134195
 10
407.7359095407308
 20
358.1513901208164
 42
-0.0423989826091852
 10
407.8286399913185
 20
358.4807920588559
 42
-0.0430408962129868
 10
407.9758721515067
 20
358.7896237281508
  0
LINE
  5
89C
330
22
100
AcDbEntity
  8
0
  6
Continuous
100
AcDbLine
 10
407.9758721515067
 20
358.7896237281508
 30
0.0
 11
414.4869959569045
 21
369.8676004703937
 31
0.0
  0
LWPOLYLINE
  5
89D
330
22
100
AcDbEntity
  8
0
  6
Continuous
100
AcDbPolyline
 90
        7
 70
     0
 43
0.0
 10
414.4869959569045
 20
369.8676004703937
 42
-0.0428053301529823
 10
414.6839226195072
 20
370.1449473054199
 42
-0.0421317335705818
 10
414.9249291026469
 20
370.3852499476553
 42
-0.0428053301522998
 10
415.2028507004414
 20
370.5813646151902
 42
-0.0428053301527022
 10
415.5102558457675
 20
370.7269786734741
 42
-0.0421317335705779
 10
415.8379940488248
 20
370.8187237280417
 42
-0.0428053301529124
 10
416.1763222197144
 20
370.8538723571089
  0
LINE
  5
8A6
330
22
100
AcDbEntity
  8
0
  6
Continuous
100
AcDbLine
 10
416.1763222197144
 20
370.8538723571089
 30
0.0
 11
416.6663367314468
 21
370.8624255922269
 31
0.0
  0
LINE
  5
8A7
330
22
100
AcDbEntity
  8
0
  6
Continuous
100
AcDbLine
 10
416.6663367314468
 20
370.8624255922269
 30
0.0
 11
416.6663367314468
 21
371.4567526961254
 31
0.0
  0
LINE
  5
8A8
330
22
100
AcDbEntity
  8
0
  6
Continuous
100
AcDbLine
 10
416.6663367314468
 20
371.4567526961254
 30
0.0
 11
419.1221476442429
 21
371.4996190350596
 31
0.0
  0
LWPOLYLINE
  5
8A9
330
22
100
AcDbEntity
  8
0
  6
Continuous
100
AcDbPolyline
 90
        7
 70
     0
 43
0.0
 10
419.1221476442429
 20
371.4996190350596
 42
-0.0420952663975227
 10
419.1835753435816
 20
371.5563920965723
 42
-0.041454249278138
 10
419.2536079685624
 20
371.6022115784797
 42
-0.0420952664021554
 10
419.3302309657014
 20
371.6357594408407
 42
-0.0420952664056611
 10
419.4114099464814
 20
371.655921678789
 42
-0.0414542492813005
 10
419.4948533402411
 20
371.6623398967529
 42
-0.0420952664058743
 10
419.5781608202806
 20
371.6548294687332
  0
LINE
  5
8B2
330
22
100
AcDbEntity
  8
0
  6
Continuous
100
AcDbLine
 10
419.5781608202806
 20
371.6548294687332
 30
0.0
 11
420.3380387212174
 21
371.5208424927538
 31
0.0
  0
LINE
  5
8B3
330
22
100
AcDbEntity
  8
0
  6
Continuous
100
AcDbLine
 10
420.3380387212174
 20
371.5208424927538
 30
0.0
 11
423.3913367314472
 21
371.5741380077676
 31
0.0
  0
LINE
  5
8B4
330
22
100
AcDbEntity
  8
0
  6
Continuous
100
AcDbLine
 10
423.3913367314472
 20
371.5741380077676
 30
0.0
 11
423.3913367314472
 21
372.5519068548567
 31
0.0
  0
LWPOLYLINE
  5
8B5
330
22
100
AcDbEntity
  8
0
  6
Continuous
100
AcDbPolyline
 90
        7
 70
     0
 43
0.0
 10
423.3913367314472
 20
372.5519068548567
 42
0.0670193931736218
 10
423.3806403428213
 20
372.6302695940981
 42
0.0645012546505353
 10
423.3500045718155
 20
372.7033276157012
 42
0.0670193931906816
 10
423.3016095107371
 20
372.765881989603
 42
0.0670193931945387
 10
423.2382200538939
 20
372.8131779555215
 42
0.0645012546641279
 10
423.1646384914542
 20
372.8425340222644
 42
0.0670193931803296
 10
423.0861010095159
 20
372.8518611634037
  0
LINE
  5
8BE
330
22
100
AcDbEntity
  8
0
  6
Continuous
100
AcDbLine
 10
423.0861010095159
 20
372.8518611634037
 30
0.0
 11
416.5188911538811
 21
372.7372300889764
 31
0.0
  0
LWPOLYLINE
  5
8BF
330
22
100
AcDbEntity
  8
0
  6
Continuous
100
AcDbPolyline
 90
        7
 70
     0
 43
0.0
 10
416.5188911538811
 20
372.7372300889764
 42
0.0428053300425022
 10
415.842234811284
 20
372.6669328311797
 42
0.0421317338571809
 10
415.1867584065106
 20
372.48344272242
 42
0.0428053300425564
 10
414.5719481153351
 20
372.1922146051387
 42
0.04280533004268
 10
414.0161049188679
 20
371.799985269964
 42
0.0421317338571659
 10
413.5340919535744
 20
371.3193799864764
 42
0.0428053300425748
 10
413.1402386282613
 20
370.7646863155459
  0
LINE
  5
8C8
330
22
100
AcDbEntity
  8
0
  6
Continuous
100
AcDbLine
 10
413.1402386282613
 20
370.7646863155459
 30
0.0
 11
406.650300495984
 21
359.7227547171389
 31
0.0
  0
LWPOLYLINE
  5
8C9
330
22
100
AcDbEntity
  8
0
  6
Continuous
100
AcDbPolyline
 90
        4
 70
     0
 43
0.0
 10
406.650300495984
 20
359.7227547171389
 42
0.0430408962129952
 10
406.3558361756077
 20
359.1050913785489
 42
0.0423989826079765
 10
406.1703752744322
 20
358.44628750247
 42
0.0430408962131637
 10
406.0993718667274
 20
357.7657173356928
  0
LINE
  5
8CF
330
22
100
AcDbEntity
  8
0
  6
Continuous
100
AcDbLine
 10
406.0993718667274
 20
357.7657173356928
 30
0.0
 11
405.9928597798829
 21
351.6636439671619
 31
0.0
  0
LINE
  5
8D0
330
22
100
AcDbEntity
  8
0
  6
Continuous
100
AcDbLine
 10
405.9928597798829
 20
351.6636439671619
 30
0.0
 11
405.9913367314469
 21
351.489119902789
 31
0.0
  0
LINE
  5
8D1
330
22
100
AcDbEntity
  8
0
  6
Continuous
100
AcDbLine
 10
405.9913367314467
 20
351.489119902789
 30
0.0
 11
405.9913367314467
 21
323.3822940075841
 31
0.0
  0
LINE
  5
8D8
330
22
100
AcDbEntity
  8
0
  6
Continuous
100
AcDbLine
 10
416.9913367314467
 20
351.6869762415092
 30
0.0
 11
406.9913367314468
 21
351.512425592227
 31
0.0
  0
LINE
  5
8D9
330
22
100
AcDbEntity
  8
0
  6
Continuous
100
AcDbLine
 10
406.9913367314468
 20
351.512425592227
 30
0.0
 11
406.9913367314468
 21
350.8095542675331
 31
0.0
  0
LINE
  5
8DA
330
22
100
AcDbEntity
  8
0
  6
Continuous
100
AcDbLine
 10
406.9913367314468
 20
350.8095542675331
 30
0.0
 11
409.6913367314468
 21
350.762425592227
 31
0.0
  0
LINE
  5
8DB
330
22
100
AcDbEntity
  8
0
  6
Continuous
100
AcDbLine
 10
409.6913367314468
 20
350.762425592227
 30
0.0
 11
409.6913367314468
 21
344.8624255922269
 31
0.0
  0
LINE
  5
8DC
330
22
100
AcDbEntity
  8
0
  6
Continuous
100
AcDbLine
 10
409.6913367314468
 20
344.8624255922269
 30
0.0
 11
410.8913367314468
 21
344.8624255922269
 31
0.0
  0
LINE
  5
8DD
330
22
100
AcDbEntity
  8
0
  6
Continuous
100
AcDbLine
 10
410.8913367314468
 20
344.8624255922269
 30
0.0
 11
410.8913367314468
 21
350.4384946312366
 31
0.0
  0
LINE
  5
8DE
330
22
100
AcDbEntity
  8
0
  6
Continuous
100
AcDbLine
 10
410.8913367314468
 20
350.4384946312366
 30
0.0
 11
417.9913367314467
 21
350.562425592227
 31
0.0
  0
LINE
  5
8DF
330
22
100
AcDbEntity
  8
0
  6
Continuous
100
AcDbLine
 10
417.9913367314467
 20
350.562425592227
 30
0.0
 11
417.9913367314467
 21
352.8624255922271
 31
0.0
  0
LINE
  5
8E0
330
22
100
AcDbEntity
  8
0
  6
Continuous
100
AcDbLine
 10
417.9913367314467
 20
352.8624255922271
 30
0.0
 11
416.9913367314467
 21
352.8624255922271
 31
0.0
  0
LINE
  5
8E1
330
22
100
AcDbEntity
  8
0
  6
Continuous
100
AcDbLine
 10
416.9913367314467
 20
352.8624255922271
 30
0.0
 11
416.9913367314467
 21
351.6869762415092
 31
0.0
  0
LINE
  5
8E2
330
22
100
AcDbEntity
  8
0
  6
Continuous
100
AcDbLine
 10
406.9913367314468
 20
292.212425592227
 30
0.0
 11
416.9913367314467
 21
292.0378749429449
 31
0.0
  0
LINE
  5
8E3
330
22
100
AcDbEntity
  8
0
  6
Continuous
100
AcDbLine
 10
416.9913367314467
 20
292.0378749429449
 30
0.0
 11
416.9913367314467
 21
290.8624255922269
 31
0.0
  0
LINE
  5
8E4
330
22
100
AcDbEntity
  8
0
  6
Continuous
100
AcDbLine
 10
416.9913367314467
 20
290.8624255922269
 30
0.0
 11
417.9913367314467
 21
290.8624255922269
 31
0.0
  0
LINE
  5
8E5
330
22
100
AcDbEntity
  8
0
  6
Continuous
100
AcDbLine
 10
417.9913367314467
 20
290.8624255922269
 30
0.0
 11
417.9913367314467
 21
293.162425592227
 31
0.0
  0
LINE
  5
8E6
330
22
100
AcDbEntity
  8
0
  6
Continuous
100
AcDbLine
 10
417.9913367314467
 20
293.162425592227
 30
0.0
 11
410.8913367314468
 21
293.2863565532174
 31
0.0
  0
LINE
  5
8E7
330
22
100
AcDbEntity
  8
0
  6
Continuous
100
AcDbLine
 10
410.8913367314468
 20
293.2863565532174
 30
0.0
 11
410.8913367314468
 21
298.8624255922269
 31
0.0
  0
LINE
  5
8E8
330
22
100
AcDbEntity
  8
0
  6
Continuous
100
AcDbLine
 10
410.8913367314468
 20
298.8624255922269
 30
0.0
 11
409.6913367314468
 21
298.8624255922269
 31
0.0
  0
LINE
  5
8E9
330
22
100
AcDbEntity
  8
0
  6
Continuous
100
AcDbLine
 10
409.6913367314468
 20
298.8624255922269
 30
0.0
 11
409.6913367314468
 21
292.962425592227
 31
0.0
  0
LINE
  5
8EA
330
22
100
AcDbEntity
  8
0
  6
Continuous
100
AcDbLine
 10
409.6913367314468
 20
292.962425592227
 30
0.0
 11
406.9913367314468
 21
292.9152969169209
 31
0.0
  0
LINE
  5
8EB
330
22
100
AcDbEntity
  8
0
  6
Continuous
100
AcDbLine
 10
406.9913367314468
 20
292.9152969169209
 30
0.0
 11
406.9913367314468
 21
292.212425592227
 31
0.0
  0
LINE
  5
8EC
330
22
100
AcDbEntity
  8
0
  6
Continuous
100
AcDbLine
 10
417.9913367314467
 20
360.262425592227
 30
0.0
 11
416.9913367314467
 21
360.262425592227
 31
0.0
  0
LINE
  5
8ED
330
22
100
AcDbEntity
  8
0
  6
Continuous
100
AcDbLine
 10
416.9913367314468
 20
360.262425592227
 30
0.0
 11
416.9913367314467
 21
359.3624255922271
 31
0.0
  0
LINE
  5
8EE
330
22
100
AcDbEntity
  8
0
  6
Continuous
100
AcDbLine
 10
416.9913367314467
 20
359.3624255922271
 30
0.0
 11
417.9913367314467
 21
359.3624255922271
 31
0.0
  0
LINE
  5
8EF
330
22
100
AcDbEntity
  8
0
  6
Continuous
100
AcDbLine
 10
417.9913367314467
 20
359.3624255922271
 30
0.0
 11
417.9913367314468
 21
360.262425592227
 31
0.0
  0
LINE
  5
8F0
330
22
100
AcDbEntity
  8
0
  6
Continuous
100
AcDbLine
 10
416.9913367314467
 20
283.462425592227
 30
0.0
 11
417.9913367314467
 21
283.462425592227
 31
0.0
  0
LINE
  5
8F1
330
22
100
AcDbEntity
  8
0
  6
Continuous
100
AcDbLine
 10
417.9913367314467
 20
283.462425592227
 30
0.0
 11
417.9913367314467
 21
284.3624255922269
 31
0.0
  0
LINE
  5
8F2
330
22
100
AcDbEntity
  8
0
  6
Continuous
100
AcDbLine
 10
417.9913367314467
 20
284.3624255922269
 30
0.0
 11
416.9913367314467
 21
284.3624255922269
 31
0.0
  0
LINE
  5
8F3
330
22
100
AcDbEntity
  8
0
  6
Continuous
100
AcDbLine
 10
416.9913367314467
 20
284.3624255922269
 30
0.0
 11
416.9913367314467
 21
283.462425592227
 31
0.0
  0
LINE
  5
8F4
330
22
100
AcDbEntity
  8
0
  6
Continuous
100
AcDbLine
 10
417.9913367314468
 20
360.362425592227
 30
0.0
 11
417.9913367314467
 21
327.3624255922269
 31
0.0
  0
LINE
  5
8F5
330
22
100
AcDbEntity
  8
0
  6
Continuous
100
AcDbLine
 10
417.9913367314467
 20
327.3624255922269
 30
0.0
 11
418.9913367314467
 21
327.3624255922269
 31
0.0
  0
LINE
  5
8F6
330
22
100
AcDbEntity
  8
0
  6
Continuous
100
AcDbLine
 10
418.9913367314467
 20
327.3624255922269
 30
0.0
 11
418.9913367314469
 21
360.362425592227
 31
0.0
  0
LINE
  5
8F7
330
22
100
AcDbEntity
  8
0
  6
Continuous
100
AcDbLine
 10
418.9913367314469
 20
360.362425592227
 30
0.0
 11
417.9913367314468
 21
360.362425592227
 31
0.0
  0
LINE
  5
8F8
330
22
100
AcDbEntity
  8
0
  6
Continuous
100
AcDbLine
 10
417.9913367314467
 20
316.362425592227
 30
0.0
 11
417.9913367314467
 21
283.362425592227
 31
0.0
  0
LINE
  5
8F9
330
22
100
AcDbEntity
  8
0
  6
Continuous
100
AcDbLine
 10
417.9913367314467
 20
283.362425592227
 30
0.0
 11
418.9913367314467
 21
283.362425592227
 31
0.0
  0
LINE
  5
8FA
330
22
100
AcDbEntity
  8
0
  6
Continuous
100
AcDbLine
 10
418.9913367314467
 20
283.362425592227
 30
0.0
 11
418.9913367314467
 21
316.362425592227
 31
0.0
  0
LINE
  5
8FB
330
22
100
AcDbEntity
  8
0
  6
Continuous
100
AcDbLine
 10
418.9913367314467
 20
316.362425592227
 30
0.0
 11
417.9913367314467
 21
316.362425592227
 31
0.0
  0
LINE
  5
8FC
330
22
100
AcDbEntity
  8
0
  6
Continuous
100
AcDbLine
 10
420.6913367314468
 20
325.8624255918721
 30
0.0
 11
420.6913367314468
 21
317.8624255925817
 31
0.0
  0
LINE
  5
8FD
330
22
100
AcDbEntity
  8
0
  6
Continuous
100
AcDbLine
 10
420.6913367314468
 20
317.8624255922269
 30
0.0
 11
422.1913367314468
 21
316.362425592227
 31
0.0
  0
LINE
  5
8FE
330
22
100
AcDbEntity
  8
0
  6
Continuous
100
AcDbLine
 10
422.1913367314468
 20
316.3624255943375
 30
0.0
 11
422.1913367314468
 21
285.2627302483655
 31
0.0
  0
LINE
  5
8FF
330
22
100
AcDbEntity
  8
0
  6
Continuous
100
AcDbLine
 10
422.1913367314468
 20
285.2627302483148
 30
0.0
 11
418.9913367314467
 21
285.2068740405444
 31
0.0
  0
LINE
  5
900
330
22
100
AcDbEntity
  8
0
  6
Continuous
100
AcDbLine
 10
418.9913367314467
 20
285.2068740405954
 30
0.0
 11
418.9913367314467
 21
283.2065693845011
 31
0.0
  0
LINE
  5
901
330
22
100
AcDbEntity
  8
0
  6
Continuous
100
AcDbLine
 10
418.9913367314467
 20
283.2065693844567
 30
0.0
 11
416.9913367314467
 21
283.1716592546003
 31
0.0
  0
LINE
  5
902
330
22
100
AcDbEntity
  8
0
  6
Continuous
100
AcDbLine
 10
416.9913367314467
 20
283.1716592546446
 30
0.0
 11
416.9913367314467
 21
272.4624560554722
 31
0.0
  0
LINE
  5
903
330
22
100
AcDbEntity
  8
0
  6
Continuous
100
AcDbLine
 10
416.9913367314467
 20
272.4624560554722
 30
0.0
 11
418.9925562953855
 21
272.4275246380481
 31
0.0
  0
LWPOLYLINE
  5
904
330
22
100
AcDbEntity
  8
0
  6
Continuous
100
AcDbPolyline
 90
       13
 70
     0
 43
0.0
 10
418.9925562953855
 20
272.4275246380481
 42
0.0639104697238811
 10
419.0174569869543
 20
272.304116112783
 42
0.0617178894218097
 10
419.0721763876565
 20
272.1905276155597
 42
0.0639104696798538
 10
419.1531606177104
 20
272.0941364176669
 42
0.065601554870029
 10
419.2589881099831
 20
272.0201609266869
 42
0.0632355386494241
 10
419.3802954490518
 20
271.9753385877961
 42
0.065601554866772
 10
419.5087978592654
 20
271.9627305762271
 42
0.0639104696920645
 10
419.6330006975957
 20
271.9833063751033
 42
0.0617178894128146
 10
419.74843083437
 20
272.0340256321847
 42
0.0639104696785687
 10
419.8475913887013
 20
272.1115942663959
 42
0.0656015548860077
 10
419.9252174917377
 20
272.2147738162778
 42
0.0632355386190053
 10
419.9742488163416
 20
272.3344418645746
 42
0.0656015548700619
 10
419.9913367314468
 20
272.4624255922269
  0
LINE
  5
913
330
22
100
AcDbEntity
  8
0
  6
Continuous
100
AcDbLine
 10
419.9913367314468
 20
272.4624255922269
 30
0.0
 11
419.9913367314468
 21
272.8624255922269
 31
0.0
  0
LINE
  5
914
330
22
100
AcDbEntity
  8
0
  6
Continuous
100
AcDbLine
 10
419.9913367314468
 20
272.8624255922269
 30
0.0
 11
422.1915651887122
 21
272.9008307228055
 31
0.0
  0
LINE
  5
915
330
22
100
AcDbEntity
  8
0
  6
Continuous
100
AcDbLine
 10
422.1915651887122
 20
272.9008307228055
 30
0.0
 11
423.6913367314468
 21
273.9509820626207
 31
0.0
  0
LINE
  5
916
330
22
100
AcDbEntity
  8
0
  6
Continuous
100
AcDbLine
 10
423.6913367314468
 20
273.9509820626707
 30
0.0
 11
423.6913367314468
 21
274.4270093324807
 31
0.0
  0
LINE
  5
917
330
22
100
AcDbEntity
  8
0
  6
Continuous
100
AcDbLine
 10
423.6913363679245
 20
274.4270093356338
 30
0.0
 11
418.491336731447
 21
274.4723890449734
 31
0.0
  0
LINE
  5
918
330
22
100
AcDbEntity
  8
0
  6
Continuous
100
AcDbLine
 10
418.4913367314467
 20
274.4723890449936
 30
0.0
 11
418.4913367314467
 21
281.7170458797166
 31
0.0
  0
LINE
  5
919
330
22
100
AcDbEntity
  8
0
  6
Continuous
100
AcDbLine
 10
418.4913367314467
 20
281.7170458797151
 30
0.0
 11
420.4913367314476
 21
281.7344996152966
 31
0.0
  0
LINE
  5
91A
330
22
100
AcDbEntity
  8
0
  6
Continuous
100
AcDbLine
 10
420.4913367314468
 20
281.7344996152987
 30
0.0
 11
420.4913367314468
 21
283.7345757720694
 31
0.0
  0
LINE
  5
91B
330
22
100
AcDbEntity
  8
0
  6
Continuous
100
AcDbLine
 10
420.4913367314459
 20
283.7345757720681
 30
0.0
 11
423.6913367314466
 21
283.7625017489985
 31
0.0
  0
LINE
  5
91C
330
22
100
AcDbEntity
  8
0
  6
Continuous
100
AcDbLine
 10
423.6913367314468
 20
283.762501749001
 30
0.0
 11
423.6913367314468
 21
319.024925592227
 31
0.0
  0
LINE
  5
920
330
22
100
AcDbEntity
  8
0
  6
Continuous
100
AcDbLine
 10
423.6913367314468
 20
319.024925592227
 30
0.0
 11
423.6913367314468
 21
359.962349435453
 31
0.0
  0
LINE
  5
921
330
22
100
AcDbEntity
  8
0
  6
Continuous
100
AcDbLine
 10
423.6913367314466
 20
359.9623494354555
 30
0.0
 11
420.4913367314459
 21
359.9902754123859
 31
0.0
  0
LINE
  5
922
330
22
100
AcDbEntity
  8
0
  6
Continuous
100
AcDbLine
 10
420.4913367314468
 20
359.9902754123844
 30
0.0
 11
420.4913367314468
 21
361.9903515691552
 31
0.0
  0
LINE
  5
923
330
22
100
AcDbEntity
  8
0
  6
Continuous
100
AcDbLine
 10
420.4913367314477
 20
361.9903515691574
 30
0.0
 11
418.4913367314469
 21
362.0078053047389
 31
0.0
  0
LINE
  5
924
330
22
100
AcDbEntity
  8
0
  6
Continuous
100
AcDbLine
 10
418.4913367314469
 20
362.0078053047374
 30
0.0
 11
418.4913367314469
 21
369.2524621394603
 31
0.0
  0
LINE
  5
925
330
22
100
AcDbEntity
  8
0
  6
Continuous
100
AcDbLine
 10
418.491336731447
 20
369.2524621394806
 30
0.0
 11
423.6913363679245
 21
369.2978418488202
 31
0.0
  0
LINE
  5
926
330
22
100
AcDbEntity
  8
0
  6
Continuous
100
AcDbLine
 10
423.6913367314468
 20
369.2978418519733
 30
0.0
 11
423.6913367314468
 21
369.7738691217832
 31
0.0
  0
LINE
  5
927
330
22
100
AcDbEntity
  8
0
  6
Continuous
100
AcDbLine
 10
423.6913367314468
 20
369.7738691218334
 30
0.0
 11
422.1915651887122
 21
370.8240204616485
 31
0.0
  0
LINE
  5
928
330
22
100
AcDbEntity
  8
0
  6
Continuous
100
AcDbLine
 10
422.1915651887122
 20
370.8240204616485
 30
0.0
 11
419.9913367314468
 21
370.8624255922269
 31
0.0
  0
LINE
  5
929
330
22
100
AcDbEntity
  8
0
  6
Continuous
100
AcDbLine
 10
419.9913367314468
 20
370.862425592227
 30
0.0
 11
419.9913367314468
 21
371.262425592227
 31
0.0
  0
LWPOLYLINE
  5
92A
330
22
100
AcDbEntity
  8
0
  6
Continuous
100
AcDbPolyline
 90
       13
 70
     0
 43
0.0
 10
419.9913367314468
 20
371.262425592227
 42
0.0639104696812645
 10
419.9751109264203
 20
371.3872712241086
 42
0.0617178894231102
 10
419.9284536872074
 20
371.504402183055
 42
0.0639104696875341
 10
419.8543952776084
 20
371.6062111242945
 42
0.0656015548848871
 10
419.7539895425645
 20
371.6873931405096
 42
0.063235538638487
 10
419.6361067723999
 20
371.7405736357489
 42
0.0656015548849132
 10
419.5087978592654
 20
371.7621206082271
 42
0.0639104696845829
 10
419.3834617375132
 20
371.7502645914941
 42
0.0617178894202578
 10
419.2647728486685
 20
371.7077262889956
 42
0.0639104696812623
 10
419.1604397209131
 20
371.6372684505287
 42
0.0656015548886194
 10
419.0758008283833
 20
371.5397590188936
 42
0.0632355386313826
 10
419.0185360393094
 20
371.4238053362962
 42
0.0656015548853279
 10
418.9925562953856
 20
371.297326546406
  0
LINE
  5
939
330
22
100
AcDbEntity
  8
0
  6
Continuous
100
AcDbLine
 10
418.9925562953856
 20
371.297326546406
 30
0.0
 11
416.9913367314468
 21
371.2623951289818
 31
0.0
  0
LINE
  5
93A
330
22
100
AcDbEntity
  8
0
  6
Continuous
100
AcDbLine
 10
416.9913367314468
 20
371.2623951289818
 30
0.0
 11
416.9913367314468
 21
360.5531919298094
 31
0.0
  0
LINE
  5
93B
330
22
100
AcDbEntity
  8
0
  6
Continuous
100
AcDbLine
 10
416.9913367314468
 20
360.5531919298537
 30
0.0
 11
418.9913367314467
 21
360.5182817999974
 31
0.0
  0
LINE
  5
93C
330
22
100
AcDbEntity
  8
0
  6
Continuous
100
AcDbLine
 10
418.9913367314467
 20
360.518281799953
 30
0.0
 11
418.9913367314467
 21
358.5179771438586
 31
0.0
  0
LINE
  5
93D
330
22
100
AcDbEntity
  8
0
  6
Continuous
100
AcDbLine
 10
418.9913367314467
 20
358.5179771439094
 30
0.0
 11
422.1913367314468
 21
358.4621209361392
 31
0.0
  0
LINE
  5
93E
330
22
100
AcDbEntity
  8
0
  6
Continuous
100
AcDbLine
 10
422.1913367314468
 20
358.4621209360884
 30
0.0
 11
422.1913367314468
 21
327.3624255901164
 31
0.0
  0
LINE
  5
93F
330
22
100
AcDbEntity
  8
0
  6
Continuous
100
AcDbLine
 10
422.1913367314468
 20
327.3624255922269
 30
0.0
 11
420.6913367314468
 21
325.8624255922269
 31
0.0
  0
LINE
  5
E6B
330
22
100
AcDbEntity
  8
0
  6
CENTER
 62
     1
100
AcDbLine
 10
209.663492589365
 20
321.8624255922269
 30
0.0
 11
317.6423637317184
 21
321.8624255922269
 31
0.0
  0
LINE
  5
E6C
330
22
100
AcDbEntity
  8
0
  6
CENTER
 62
     1
100
AcDbLine
 10
263.6529281605417
 20
267.8729900210502
 30
0.0
 11
263.6529281605417
 21
375.8518611634036
 31
0.0
  0
CIRCLE
  5
15DB
330
22
100
AcDbEntity
  8
0
100
AcDbCircle
 10
263.6529281605417
 20
355.862425592227
 30
0.0
 40
2.7
  0
CIRCLE
  5
15DC
330
22
100
AcDbEntity
  8
0
100
AcDbCircle
 10
276.6641651605417
 20
353.274329592227
 30
0.0
 40
2.7
  0
CIRCLE
  5
15DD
330
22
100
AcDbEntity
  8
0
100
AcDbCircle
 10
287.6945586605417
 20
345.904056092227
 30
0.0
 40
2.7
  0
CIRCLE
  5
15DE
330
22
100
AcDbEntity
  8
0
100
AcDbCircle
 10
250.6416916605417
 20
353.274329592227
 30
0.0
 40
2.7
  0
CIRCLE
  5
15DF
330
22
100
AcDbEntity
  8
0
100
AcDbCircle
 10
239.6112976605417
 20
345.904056092227
 30
0.0
 40
2.7
  0
CIRCLE
  5
15E0
330
22
100
AcDbEntity
  8
0
100
AcDbCircle
 10
232.3181605287353
 20
335.058346835577
 30
0.0
 40
2.7
  0
CIRCLE
  5
15E1
330
22
100
AcDbEntity
  8
0
100
AcDbCircle
 10
229.6529281605417
 20
321.8624255922269
 30
0.0
 40
2.7
  0
CIRCLE
  5
15E2
330
22
100
AcDbEntity
  8
0
100
AcDbCircle
 10
232.2410241605417
 20
308.851188592227
 30
0.0
 40
2.7
  0
CIRCLE
  5
15E3
330
22
100
AcDbEntity
  8
0
100
AcDbCircle
 10
239.6112976605417
 20
297.820795092227
 30
0.0
 40
2.7
  0
CIRCLE
  5
15E4
330
22
100
AcDbEntity
  8
0
100
AcDbCircle
 10
250.6416916605417
 20
290.450521092227
 30
0.0
 40
2.7
  0
CIRCLE
  5
15E5
330
22
100
AcDbEntity
  8
0
100
AcDbCircle
 10
263.6529281605417
 20
287.862425592227
 30
0.0
 40
2.7
  0
CIRCLE
  5
15E6
330
22
100
AcDbEntity
  8
0
100
AcDbCircle
 10
276.6641651605417
 20
290.450521092227
 30
0.0
 40
2.7
  0
CIRCLE
  5
15E7
330
22
100
AcDbEntity
  8
0
100
AcDbCircle
 10
287.6945586605417
 20
297.820795092227
 30
0.0
 40
2.7
  0
CIRCLE
  5
15E8
330
22
100
AcDbEntity
  8
0
100
AcDbCircle
 10
295.0648321605417
 20
308.851188592227
 30
0.0
 40
2.7
  0
CIRCLE
  5
15E9
330
22
100
AcDbEntity
  8
0
100
AcDbCircle
 10
297.6529281605417
 20
321.8624255922269
 30
0.0
 40
2.7
  0
CIRCLE
  5
15EA
330
22
100
AcDbEntity
  8
0
100
AcDbCircle
 10
295.0648321605417
 20
334.873662092227
 30
0.0
 40
2.7
  0
CIRCLE
  5
15EC
330
22
100
AcDbEntity
  8
0
100
AcDbCircle
 10
263.6529281605417
 20
321.8624255922269
 30
0.0
 40
30.3
  0
CIRCLE
  5
15ED
330
22
100
AcDbEntity
  8
0
100
AcDbCircle
 10
263.6529281605417
 20
321.8624255922269
 30
0.0
 40
49.0
  0
CIRCLE
  5
1812
330
22
100
AcDbEntity
  8
0
  6
Continuous
100
AcDbCircle
 10
263.6529281605417
 20
321.8624255922269
 30
0.0
 40
51.0
  0
DIMENSION
  5
18B1
330
22
100
AcDbEntity
  8
0
  6
Continuous
100
AcDbDimension
  2
*D0
 10
314.6529281605417
 20
397.4060228557756
 30
0.0
 11
263.6529281605417
 21
400.9060228557756
 31
0.0
 70
    32
 71
     5
 42
102.0
  3
STANDARD
100
AcDbAlignedDimension
 13
212.6529281605417
 23
331.2709183768334
 33
0.0
 14
314.6529281605417
 24
331.2709183768334
 34
0.0
100
AcDbRotatedDimension
1001
ACAD
1000
DSTYLE
1002
{
1070
    41
1040
2.0
1070
    42
1040
2.0
1070
    43
1040
1.0
1070
   140
1040
5.0
1070
   147
1040
1.0
1070
   173
1070
     0
1070
   271
1070
     0
1070
   272
1070
     0
1070
   279
1070
     0
1002
}
  0
DIMENSION
  5
18D0
330
22
100
AcDbEntity
  8
0
  6
Continuous
100
AcDbDimension
  2
*D1
 10
406.1703752744321
 20
257.1138667733255
 30
0.0
 11
414.9308560029394
 21
260.6138667733255
 31
0.0
 70
    32
 71
     5
 42
17.52096145701466
  3
STANDARD
100
AcDbAlignedDimension
 13
423.6913367314468
 23
273.9509820626207
 33
0.0
 14
406.1703752744321
 24
285.2785636819841
 34
0.0
100
AcDbRotatedDimension
1001
ACAD
1000
DSTYLE
1002
{
1070
    41
1040
2.0
1070
    42
1040
2.0
1070
    43
1040
1.0
1070
   140
1040
5.0
1070
   147
1040
1.0
1070
   173
1070
     0
1070
   271
1070
     0
1070
   272
1070
     0
1070
   279
1070
     0
1002
}
  0
LINE
  5
1966
330
22
100
AcDbEntity
  8
0
100
AcDbLine
 10
172.597396789952
 20
209.2391903413258
 30
0.0
 11
478.2654144113672
 21
209.2391903413258
 31
0.0
  0
LINE
  5
1967
330
22
100
AcDbEntity
  8
0
100
AcDbLine
 10
172.597396789952
 20
427.0956517487185
 30
0.0
 11
478.2654144113672
 21
427.0956517487185
 31
0.0
  0
LINE
  5
1968
330
22
100
AcDbEntity
  8
0
100
AcDbLine
 10
172.597396789952
 20
427.0956517487185
 30
0.0
 11
172.597396789952
 21
209.2391903413258
 31
0.0
  0
POINT
  5
1969
330
22
100
AcDbEntity
  8
0
100
AcDbPoint
 10
156.6206459183635
 20
204.8151372287943
 30
0.0
  0
LINE
  5
196A
330
22
100
AcDbEntity
  8
0
100
AcDbLine
 10
478.2654144113672
 20
209.2391903413258
 30
0.0
 11
478.2654144113672
 21
427.0956517487185
 31
0.0
  0
LINE
  5
196B
330
22
100
AcDbEntity
  8
0
100
AcDbLine
 10
337.4654144114153
 20
216.1191903413234
 30
0.0
 11
478.2654144113672
 21
216.1191903413234
 31
0.0
  0
LINE
  5
196C
330
22
100
AcDbEntity
  8
0
100
AcDbLine
 10
337.4654144114153
 20
222.999190341321
 30
0.0
 11
478.2654144113672
 21
222.999190341321
 31
0.0
  0
LINE
  5
196D
330
22
100
AcDbEntity
  8
0
100
AcDbLine
 10
337.4654144114153
 20
230.0391903413187
 30
0.0
 11
478.2654144113672
 21
230.0391903413187
 31
0.0
  0
TEXT
  5
196E
330
22
100
AcDbEntity
  8
0
100
AcDbText
 10
370.665414411404
 20
209.9591903413255
 30
0.0
 40
1.999999999999318
  1
調
100
AcDbText
  0
LINE
  5
196F
330
22
100
AcDbEntity
  8
0
100
AcDbLine
 10
337.4654144114153
 20
226.4391903413199
 30
0.0
 11
422.2654144113863
 21
226.4391903413199
 31
0.0
  0
LINE
  5
1970
330
22
100
AcDbEntity
  8
0
100
AcDbLine
 10
337.4654144114153
 20
219.5591903413222
 30
0.0
 11
422.2654144113863
 21
219.5591903413222
 31
0.0
  0
LINE
  5
1971
330
22
100
AcDbEntity
  8
0
100
AcDbLine
 10
337.4654144114153
 20
212.6791903413246
 30
0.0
 11
422.2654144113863
 21
212.6791903413246
 31
0.0
  0
TEXT
  5
1972
330
22
100
AcDbEntity
  8
0
100
AcDbText
 10
342.2654144114137
 20
209.9591903413255
 30
0.0
 40
1.999999999999318
  1
計
100
AcDbText
  0
TEXT
  5
1973
330
22
100
AcDbEntity
  8
0
100
AcDbText
 10
338.6654144114149
 20
209.9591903413255
 30
0.0
 40
1.999999999999318
  1
設
100
AcDbText
  0
LINE
  5
1974
330
22
100
AcDbEntity
  8
0
100
AcDbLine
 10
369.4654144114044
 20
212.6791903413246
 30
0.0
 11
369.4654144114044
 21
209.2391903413258
 31
0.0
  0
LINE
  5
1975
330
22
100
AcDbEntity
  8
0
100
AcDbLine
 10
357.4654144114085
 20
212.6791903413246
 30
0.0
 11
357.4654144114085
 21
209.2391903413258
 31
0.0
  0
LINE
  5
1976
330
22
100
AcDbEntity
  8
0
100
AcDbLine
 10
345.4654144114126
 20
212.6791903413246
 30
0.0
 11
345.4654144114126
 21
209.2391903413258
 31
0.0
  0
LINE
  5
1977
330
22
100
AcDbEntity
  8
0
100
AcDbLine
 10
337.4654144114153
 20
230.0391903413187
 30
0.0
 11
337.4654144114153
 21
209.2391903413258
 31
0.0
  0
LINE
  5
1978
330
22
100
AcDbEntity
  8
0
100
AcDbLine
 10
341.4654144114139
 20
230.0391903413187
 30
0.0
 11
341.4654144114139
 21
212.6791903413246
 31
0.0
  0
TEXT
  5
1979
330
22
100
AcDbEntity
  8
0
100
AcDbText
 10
338.4654144114149
 20
213.3991903413243
 30
0.0
 40
1.999999999999318
  1
版
 41
0.833333
100
AcDbText
  0
TEXT
  5
197A
330
22
100
AcDbEntity
  8
0
100
AcDbText
 10
342.6654144114135
 20
213.3991903413243
 30
0.0
 40
1.999999999999318
  1
年
100
AcDbText
  0
LINE
  5
197B
330
22
100
AcDbEntity
  8
0
100
AcDbLine
 10
365.4654144114057
 20
230.0391903413187
 30
0.0
 11
365.4654144114057
 21
212.6791903413246
 31
0.0
  0
LINE
  5
197C
330
22
100
AcDbEntity
  8
0
100
AcDbLine
 10
353.4654144114098
 20
230.0391903413187
 30
0.0
 11
353.4654144114098
 21
212.6791903413246
 31
0.0
  0
TEXT
  5
197D
330
22
100
AcDbEntity
  8
0
100
AcDbText
 10
346.4654144114122
 20
213.3991903413243
 30
0.0
 40
1.999999999999318
  1
月
100
AcDbText
  0
TEXT
  5
197E
330
22
100
AcDbEntity
  8
0
100
AcDbText
 10
350.2654144114109
 20
213.3991903413243
 30
0.0
 40
1.999999999999318
  1
日
100
AcDbText
  0
TEXT
  5
197F
330
22
100
AcDbEntity
  8
0
100
AcDbText
 10
354.6654144114094
 20
213.3991903413243
 30
0.0
 40
1.999999999999318
  1
設
100
AcDbText
  0
TEXT
  5
1980
330
22
100
AcDbEntity
  8
0
100
AcDbText
 10
362.2654144114068
 20
213.3991903413243
 30
0.0
 40
1.999999999999318
  1
計
100
AcDbText
  0
TEXT
  5
1981
330
22
100
AcDbEntity
  8
0
100
AcDbText
 10
366.6654144114053
 20
213.3991903413243
 30
0.0
 40
1.999999999999318
  1
調
100
AcDbText
  0
TEXT
  5
1982
330
22
100
AcDbEntity
  8
0
100
AcDbText
 10
374.6654144114026
 20
209.9591903413255
 30
0.0
 40
1.999999999999318
  1
査
100
AcDbText
  0
TEXT
  5
1983
330
22
100
AcDbEntity
  8
0
100
AcDbText
 10
407.0654144113915
 20
209.9591903413255
 30
0.0
 40
1.999999999999318
  1
認
100
AcDbText
  0
LINE
  5
1984
330
22
100
AcDbEntity
  8
0
100
AcDbLine
 10
410.2654144113904
 20
212.6791903413246
 30
0.0
 11
410.2654144113904
 21
209.2391903413258
 31
0.0
  0
LINE
  5
1985
330
22
100
AcDbEntity
  8
0
100
AcDbLine
 10
389.9054144113975
 20
212.6791903413246
 30
0.0
 11
389.9054144113975
 21
209.2391903413258
 31
0.0
  0
LINE
  5
1986
330
22
100
AcDbEntity
  8
0
100
AcDbLine
 10
402.2654144113931
 20
212.6791903413246
 30
0.0
 11
402.2654144113931
 21
209.2391903413258
 31
0.0
  0
LINE
  5
1987
330
22
100
AcDbEntity
  8
0
100
AcDbLine
 10
377.8654144114015
 20
230.0391903413187
 30
0.0
 11
377.8654144114015
 21
209.2391903413258
 31
0.0
  0
LINE
  5
1988
330
22
100
AcDbEntity
  8
0
100
AcDbLine
 10
422.2654144113863
 20
230.0391903413187
 30
0.0
 11
422.2654144113863
 21
209.2391903413258
 31
0.0
  0
TEXT
  5
1989
330
22
100
AcDbEntity
  8
0
100
AcDbText
 10
403.4654144113927
 20
209.9591903413255
 30
0.0
 40
1.999999999999318
  1
承
100
AcDbText
  0
TEXT
  5
198A
330
22
100
AcDbEntity
  8
0
100
AcDbText
 10
374.6654144114026
 20
213.3991903413243
 30
0.0
 40
1.999999999999318
  1
査
100
AcDbText
  0
TEXT
  5
198B
330
22
100
AcDbEntity
  8
0
100
AcDbText
 10
379.0654144114011
 20
213.3991903413243
 30
0.0
 40
1.999999999999318
  1
変
100
AcDbText
  0
TEXT
  5
198C
330
22
100
AcDbEntity
  8
0
100
AcDbText
 10
392.3987474193966
 20
213.3991903413243
 30
0.0
 40
1.999999999999318
  1
更
100
AcDbText
  0
TEXT
  5
198D
330
22
100
AcDbEntity
  8
0
100
AcDbText
 10
405.732080427392
 20
213.3991903413243
 30
0.0
 40
1.999999999999318
  1
内
100
AcDbText
  0
TEXT
  5
198E
330
22
100
AcDbEntity
  8
0
100
AcDbText
 10
419.0654134353876
 20
213.3991903413243
 30
0.0
 40
1.999999999999318
  1
容
100
AcDbText
  0
LINE
  5
198F
330
22
100
AcDbEntity
  8
0
100
AcDbLine
 10
468.2654144113707
 20
219.6391903413222
 30
0.0
 11
478.2654144113672
 21
219.6391903413222
 31
0.0
  0
TEXT
  5
1990
330
22
100
AcDbEntity
  8
0
100
AcDbText
 10
423.4654144113859
 20
210.6791903413252
 30
0.0
 40
3.999999999998636
  1
株式会社イズム
 41
0.972222
100
AcDbText
  0
TEXT
  5
1991
330
22
100
AcDbEntity
  8
0
100
AcDbText
 10
469.4654143873703
 20
211.5463354404965
 30
0.0
 40
1.999999999999318
  1
/
 50
0.0000010000681696
100
AcDbText
  0
LINE
  5
1992
330
22
100
AcDbEntity
  8
0
100
AcDbLine
 10
460.6654144113732
 20
216.1191903413234
 30
0.0
 11
460.6654144113732
 21
209.2391903413258
 31
0.0
  0
LINE
  5
1993
330
22
100
AcDbEntity
  8
0
100
AcDbLine
 10
456.6654144113746
 20
216.1191903413234
 30
0.0
 11
456.6654144113746
 21
209.2391903413258
 31
0.0
  0
TEXT
  5
1994
330
22
100
AcDbEntity
  8
0
100
AcDbText
 10
457.6680696833744
 20
209.5144288933257
 30
0.0
 40
1.999999999999318
  1
ジ
100
AcDbText
  0
LINE
  5
1995
330
22
100
AcDbEntity
  8
0
100
AcDbLine
 10
426.265414411385
 20
230.0391903413187
 30
0.0
 11
426.265414411385
 21
216.1191903413234
 31
0.0
  0
TEXT
  5
1996
330
22
100
AcDbEntity
  8
0
100
AcDbText
 10
423.265414411386
 20
220.5991903413219
 30
0.0
 40
1.999999999999318
  1
図
100
AcDbText
  0
TEXT
  5
1997
330
22
100
AcDbEntity
  8
0
100
AcDbText
 10
423.265414411386
 20
216.9991903413231
 30
0.0
 40
1.999999999999318
  1
番
100
AcDbText
  0
TEXT
  5
1998
330
22
100
AcDbEntity
  8
0
100
AcDbText
 10
423.265414411386
 20
224.0391903413207
 30
0.0
 40
1.999999999999318
  1
称
100
AcDbText
  0
TEXT
  5
1999
330
22
100
AcDbEntity
  8
0
100
AcDbText
 10
423.265414411386
 20
227.6391903413195
 30
0.0
 40
1.999999999999318
  1
名
100
AcDbText
  0
TEXT
  5
199A
330
22
100
AcDbEntity
  8
0
100
AcDbText
 10
457.6654144113742
 20
213.7191903413242
 30
0.0
 40
1.999999999999318
  1
ぺ
100
AcDbText
  0
LINE
  5
199B
330
22
100
AcDbEntity
  8
0
100
AcDbLine
 10
458.6654144113739
 20
213.7191903413242
 30
0.0
 11
458.6654144113739
 21
211.9963335493248
 31
0.0
  0
TEXT
  5
199C
330
22
100
AcDbEntity
  8
0
100
AcDbText
 10
472.4654144113692
 20
220.5191903413219
 30
0.0
 40
1.599999999999454
  1
出
100
AcDbText
  0
TEXT
  5
199D
330
22
100
AcDbEntity
  8
0
100
AcDbText
 10
468.6654144113705
 20
220.5191903413219
 30
0.0
 40
1.599999999999454
  1
提
100
AcDbText
  0
LINE
  5
199E
330
22
100
AcDbEntity
  8
0
100
AcDbLine
 10
468.2654144113707
 20
222.999190341321
 30
0.0
 11
468.2654144113707
 21
216.1191903413234
 31
0.0
  0
TEXT
  5
199F
330
22
100
AcDbEntity
  8
0
100
AcDbText
 10
476.2654144113679
 20
220.5191903413219
 30
0.0
 40
1.599999999999454
  1
先
100
AcDbText
  0
TEXT
  5
19A2
330
22
100
AcDbEntity
  8
0
100
AcDbText
 10
428.752879460664
 20
224.9802150588858
 30
0.0
 40
2.999999999998977
  1
視線誘導標φ１００外観図
 41
0.972222
100
AcDbText
  0
TEXT
  5
19A3
330
22
100
AcDbEntity
  8
0
100
AcDbText
 10
428.6036777253724
 20
218.4128551295808
 30
0.0
 40
2.999999999998977
  1
IZM-0100-A
 41
0.972222
100
AcDbText
  0
INSERT
  5
1A2A
330
22
100
AcDbEntity
  8
0
100
AcDbBlockReference
  2
A$C257378AB
 10
234.6529282975786
 20
292.8624258481066
 30
0.0
  0
LEADER
  5
1A40
330
22
100
AcDbEntity
  8
0
  6
Continuous
100
AcDbLeader
  3
STANDARD
 76
     3
 10
302.8542774169812
 20
340.3742267873269
 30
0.0
 10
327.9516976490183
 20
370.5528823867312
 30
0.0
 10
360.5972148677754
 20
370.5528823867312
 30
0.0
1001
ACAD
1000
DSTYLE
1002
{
1070
    77
1070
     0
1070
    41
1040
2.0
1070
    42
1040
2.0
1070
    43
1040
1.0
1070
   140
1040
5.0
1070
   147
1040
1.0
1070
   173
1070
     0
1070
   271
1070
     0
1070
   272
1070
     0
1070
   279
1070
     0
1002
}
  0
TEXT
  5
1A41
330
22
100
AcDbEntity
  8
0
100
AcDbText
 10
328.6345767400632
 20
372.524242943
 30
0.0
 40
2.999999999998977
  1
高輝度反射シート
 41
0.972222
100
AcDbText
  0
LEADER
  5
1A42
330
22
100
AcDbEntity
  8
0
  6
Continuous
100
AcDbLeader
  3
STANDARD
 76
     3
 10
266.6070236448397
 20
342.5054485942367
 30
0.0
 10
291.7044438768769
 20
372.684104193641
 30
0.0
 10
324.349961095634
 20
372.684104193641
 30
0.0
1001
ACAD
1000
DSTYLE
1002
{
1070
    77
1070
     0
1070
    41
1040
2.0
1070
    42
1040
2.0
1070
    43
1040
1.0
1070
   140
1040
5.0
1070
   147
1040
1.0
1070
   173
1070
     0
1070
   271
1070
     0
1070
   272
1070
     0
1070
   279
1070
     0
1002
}
  0
TEXT
  5
1A43
330
22
100
AcDbEntity
  8
0
100
AcDbText
 10
292.3873229679217
 20
374.6554647499098
 30
0.0
 40
2.999999999998977
  1
アモルファス太陽電池
 41
0.972222
100
AcDbText
  0
LEADER
  5
1A44
330
22
100
AcDbEntity
  8
0
  6
Continuous
100
AcDbLeader
  3
STANDARD
 76
     3
 10
297.8791641541384
 20
322.1404401406334
 30
0.0
 10
322.9765843861756
 20
352.3190957400377
 30
0.0
 10
355.6221016049326
 20
352.3190957400377
 30
0.0
1001
ACAD
1000
DSTYLE
1002
{
1070
    77
1070
     0
1070
    41
1040
2.0
1070
    42
1040
2.0
1070
    43
1040
1.0
1070
   140
1040
5.0
1070
   147
1040
1.0
1070
   173
1070
     0
1070
   271
1070
     0
1070
   272
1070
     0
1070
   279
1070
     0
1002
}
  0
TEXT
  5
1A45
330
22
100
AcDbEntity
  8
0
100
AcDbText
 10
323.6594634772203
 20
354.2904562963065
 30
0.0
 40
2.999999999998977
  1
高輝度発光ダイオード
 41
0.972222
100
AcDbText
  0
TEXT
  5
1A46
330
22
100
AcDbEntity
  8
0
100
AcDbText
 10
337.7054174602676
 20
233.4137242936331
 30
0.0
 40
2.999999999998977
  1
＊注記：サーモアイの発光ダイオードは白色/青色　各８個を交互に配置しています。
 41
0.972222
100
AcDbText
  0
ENDSEC
  0
SECTION
  2
OBJECTS
  0
DICTIONARY
  5
C
330
0
100
AcDbDictionary
281
     1
  3
ACAD_COLOR
350
1B
  3
ACAD_GROUP
350
D
  3
ACAD_LAYOUT
350
19
  3
ACAD_MATERIAL
350
1A
  3
ACAD_MLINESTYLE
350
16
  3
ACAD_PLOTSETTINGS
350
18
  3
ACAD_PLOTSTYLENAME
350
E
  3
ACAD_TABLESTYLE
350
1C
  3
ACDBHEADERROUNDTRIPXREC
350
1A52
  3
AcDbVariableDictionary
350
BD9
  0
DICTIONARY
  5
15C1
330
2
100
AcDbDictionary
280
     1
281
     1
  3
ACAD_LAYERSTATES
360
15C2
  0
DICTIONARY
  5
19A0
330
22
100
AcDbDictionary
280
     1
281
     1
  3
ACAD_SORTENTS
360
19A1
  0
DICTIONARY
  5
1A00
330
19FF
100
AcDbDictionary
280
     1
281
     1
  3
ACAD_SORTENTS
360
1A01
  0
DICTIONARY
  5
1B
102
{ACAD_REACTORS
330
C
102
}
330
C
100
AcDbDictionary
281
     1
  0
DICTIONARY
  5
D
102
{ACAD_REACTORS
330
C
102
}
330
C
100
AcDbDictionary
281
     1
  0
DICTIONARY
  5
19
102
{ACAD_REACTORS
330
C
102
}
330
C
100
AcDbDictionary
281
     1
  3
Model
350
25
  3
レイアウト1
350
21
  0
DICTIONARY
  5
1A
102
{ACAD_REACTORS
330
C
102
}
330
C
100
AcDbDictionary
281
     1
  0
DICTIONARY
  5
16
102
{ACAD_REACTORS
330
C
102
}
330
C
100
AcDbDictionary
281
     1
  3
Standard
350
17
  0
DICTIONARY
  5
18
102
{ACAD_REACTORS
330
C
102
}
330
C
100
AcDbDictionary
281
     1
  0
ACDBDICTIONARYWDFLT
  5
E
102
{ACAD_REACTORS
330
C
102
}
330
C
100
AcDbDictionary
281
     1
  3
Normal
350
F
100
AcDbDictionaryWithDefault
340
F
  0
DICTIONARY
  5
1C
102
{ACAD_REACTORS
330
C
102
}
330
C
100
AcDbDictionary
281
     1
  3
Standard
350
1D
  0
DICTIONARY
  5
1A52
102
{ACAD_REACTORS
330
C
102
}
330
C
100
AcDbDictionary
281
     1
  0
DICTIONARY
  5
BD9
102
{ACAD_REACTORS
330
C
102
}
330
C
100
AcDbDictionary
281
     1
  3
CTABLESTYLE
350
BDA
  3
DIMASSOC
350
1A49
  3
PROJECTNAME
350
1A4A
  0
DICTIONARY
  5
15C2
102
{ACAD_REACTORS
330
15C1
102
}
330
15C1
100
AcDbDictionary
281
     1
  0
SORTENTSTABLE
  5
19A1
102
{ACAD_REACTORS
330
19A0
102
}
330
19A0
100
AcDbSortentsTable
330
22
331
902
  5
902
331
199D
  5
199D
331
855
  5
855
331
1966
  5
1966
331
8DB
  5
8DB
331
894
  5
894
331
91A
  5
91A
331
196E
  5
196E
331
18D0
  5
18D0
331
89C
  5
89C
331
922
  5
922
331
1976
  5
1976
331
15E1
  5
15E1
331
92A
  5
92A
331
82E
  5
82E
331
8E3
  5
8E3
331
197E
  5
197E
331
15E9
  5
15E9
331
93A
  5
93A
331
836
  5
836
331
8EB
  5
8EB
331
1986
  5
1986
331
8F3
  5
8F3
331
8B4
  5
8B4
331
83E
  5
83E
331
875
  5
875
331
198E
  5
198E
331
8FB
  5
8FB
331
1996
  5
1996
331
903
  5
903
331
199E
  5
199E
331
18B1
  5
18B1
331
913
  5
913
331
856
  5
856
331
1967
  5
1967
331
91B
  5
91B
331
895
  5
895
331
8DC
  5
8DC
331
196F
  5
196F
331
923
  5
923
331
89D
  5
89D
331
1977
  5
1977
331
15E2
  5
15E2
331
8E4
  5
8E4
331
82F
  5
82F
331
85E
  5
85E
331
197F
  5
197F
331
15EA
  5
15EA
331
93B
  5
93B
331
837
  5
837
331
8EC
  5
8EC
331
1987
  5
1987
331
8B5
  5
8B5
331
8F4
  5
8F4
331
198F
  5
198F
331
87E
  5
87E
331
8FC
  5
8FC
331
1997
  5
1997
331
1812
  5
1812
331
904
  5
904
331
E6B
  5
E6B
331
199F
  5
199F
331
914
  5
914
331
857
  5
857
331
1968
  5
1968
331
15DB
  5
15DB
331
8DD
  5
8DD
331
896
  5
896
331
91C
  5
91C
331
1970
  5
1970
331
924
  5
924
331
1978
  5
1978
331
15E3
  5
15E3
331
8A6
  5
8A6
331
830
  5
830
331
85F
  5
85F
331
8E5
  5
8E5
331
1980
  5
1980
331
93C
  5
93C
331
838
  5
838
331
8ED
  5
8ED
331
1988
  5
1988
331
8F5
  5
8F5
331
1990
  5
1990
331
8BE
  5
8BE
331
87F
  5
87F
331
8FD
  5
8FD
331
1998
  5
1998
331
E6C
  5
E6C
331
915
  5
915
331
1969
  5
1969
331
15DC
  5
15DC
331
8DE
  5
8DE
331
1971
  5
1971
331
925
  5
925
331
858
  5
858
331
1979
  5
1979
331
15E4
  5
15E4
331
8E6
  5
8E6
331
8A7
  5
8A7
331
831
  5
831
331
868
  5
868
331
1981
  5
1981
331
15EC
  5
15EC
331
93D
  5
93D
331
839
  5
839
331
8EE
  5
8EE
331
1989
  5
1989
331
8F6
  5
8F6
331
1991
  5
1991
331
8FE
  5
8FE
331
8BF
  5
8BF
331
880
  5
880
331
1999
  5
1999
331
8CF
  5
8CF
331
916
  5
916
331
15DD
  5
15DD
331
196A
  5
196A
331
8DF
  5
8DF
331
1972
  5
1972
331
926
  5
926
331
197A
  5
197A
331
15E5
  5
15E5
331
8E7
  5
8E7
331
869
  5
869
331
832
  5
832
331
8A8
  5
8A8
331
1982
  5
1982
331
15ED
  5
15ED
331
93E
  5
93E
331
8EF
  5
8EF
331
83A
  5
83A
331
198A
  5
198A
331
8F7
  5
8F7
331
1992
  5
1992
331
8FF
  5
8FF
331
8C8
  5
8C8
331
881
  5
881
331
199A
  5
199A
331
8D0
  5
8D0
331
917
  5
917
331
891
  5
891
331
8D8
  5
8D8
331
15DE
  5
15DE
331
196B
  5
196B
331
1973
  5
1973
331
927
  5
927
331
8E0
  5
8E0
331
82B
  5
82B
331
197B
  5
197B
331
15E6
  5
15E6
331
8E8
  5
8E8
331
8A9
  5
8A9
331
833
  5
833
331
1983
  5
1983
331
93F
  5
93F
331
872
  5
872
331
83B
  5
83B
331
8F0
  5
8F0
331
198B
  5
198B
331
8F8
  5
8F8
331
1993
  5
1993
331
843
  5
843
331
900
  5
900
331
8C9
  5
8C9
331
199B
  5
199B
331
8D1
  5
8D1
331
88A
  5
88A
331
8D9
  5
8D9
331
892
  5
892
331
918
  5
918
331
196C
  5
196C
331
15DF
  5
15DF
331
920
  5
920
331
1974
  5
1974
331
928
  5
928
331
82C
  5
82C
331
8E1
  5
8E1
331
197C
  5
197C
331
15E7
  5
15E7
331
834
  5
834
331
8E9
  5
8E9
331
1984
  5
1984
331
8F1
  5
8F1
331
83C
  5
83C
331
873
  5
873
331
8B2
  5
8B2
331
198C
  5
198C
331
8F9
  5
8F9
331
1994
  5
1994
331
84C
  5
84C
331
901
  5
901
331
199C
  5
199C
331
88B
  5
88B
331
919
  5
919
331
893
  5
893
331
8DA
  5
8DA
331
196D
  5
196D
331
921
  5
921
331
1975
  5
1975
331
15E0
  5
15E0
331
82D
  5
82D
331
8E2
  5
8E2
331
929
  5
929
331
197D
  5
197D
331
15E8
  5
15E8
331
8EA
  5
8EA
331
939
  5
939
331
8B3
  5
8B3
331
83D
  5
83D
331
874
  5
874
331
8F2
  5
8F2
331
1985
  5
1985
331
8FA
  5
8FA
331
198D
  5
198D
331
1995
  5
1995
  0
SORTENTSTABLE
  5
1A01
102
{ACAD_REACTORS
330
1A00
102
}
330
1A00
100
AcDbSortentsTable
330
19FF
  0
LAYOUT
  5
25
102
{ACAD_XDICTIONARY
360
1A55
102
}
102
{ACAD_REACTORS
330
19
102
}
330
19
100
AcDbPlotSettings
  1

  2
Adobe PDF
  4
A4
  6

 40
3.174999952316284
 41
3.174999952316284
 42
3.175003051757812
 43
3.17498779296875
 44
209.9098358154297
 45
297.0318298339844
 46
0.0
 47
2.536502573513502
 48
172.597396789952
 49
209.2391903413258
140
478.2654144113672
141
427.0956517487185
142
1.0
143
1.070233053341551
 70
 11956
 72
     1
 73
     1
 74
     4
  7
monochrome.ctb
 75
     0
147
0.9343759257647061
148
-172.597396789952
149
-209.2391903413258
100
AcDbLayout
  1
Model
 70
     1
 71
     0
 10
0.0
 20
0.0
 11
12.0
 21
9.0
 12
0.0
 22
0.0
 32
0.0
 14
0.0
 24
0.0
 34
0.0
 15
0.0
 25
0.0
 35
0.0
146
0.0
 13
0.0
 23
0.0
 33
0.0
 16
1.0
 26
0.0
 36
0.0
 17
0.0
 27
1.0
 37
0.0
 76
     0
330
22
1001
ACAD_PSEXT
1000
Adobe PDF
1000
Adobe PDF Converter
1000
My Documents
1000
Adobe PDF の作成
1070
     0
  0
LAYOUT
  5
21
102
{ACAD_XDICTIONARY
360
1A53
102
}
102
{ACAD_REACTORS
330
19
102
}
330
19
100
AcDbPlotSettings
  1

  2
RICOH imagio Neo C246 RPCS
  4

  6

 40
0.0
 41
0.0
 42
0.0
 43
0.0
 44
0.0
 45
0.0
 46
0.0
 47
0.0
 48
0.0
 49
0.0
140
0.0
141
0.0
142
1.0
143
1.0
 70
   688
 72
     0
 73
     0
 74
     5
  7
monochrome.ctb
 75
    16
147
1.0
148
0.0
149
0.0
100
AcDbLayout
  1
レイアウト1
 70
     1
 71
     1
 10
0.0
 20
0.0
 11
12.0
 21
9.0
 12
0.0
 22
0.0
 32
0.0
 14
1.000000000000000E+20
 24
1.000000000000000E+20
 34
1.000000000000000E+20
 15
-1.000000000000000E+20
 25
-1.000000000000000E+20
 35
-1.000000000000000E+20
146
0.0
 13
0.0
 23
0.0
 33
0.0
 16
1.0
 26
0.0
 36
0.0
 17
0.0
 27
1.0
 37
0.0
 76
     0
330
1E
  0
MLINESTYLE
  5
17
102
{ACAD_REACTORS
330
16
102
}
330
16
100
AcDbMlineStyle
  2
STANDARD
 70
     0
  3

 62
   256
 51
90.0
 52
90.0
 71
     2
 49
0.5
 62
   256
  6
BYLAYER
 49
-0.5
 62
   256
  6
BYLAYER
  0
ACDBPLACEHOLDER
  5
F
102
{ACAD_REACTORS
330
E
102
}
330
E
  0
TABLESTYLE
  5
1D
102
{ACAD_REACTORS
330
1C
102
}
330
1C
100
AcDbTableStyle
  3
Standard
 70
     0
 71
     0
 40
0.06
 41
0.06
280
     0
281
     0
  7
STANDARD
140
0.18
170
     2
 62
     0
 63
     7
283
     0
274
    -2
284
     1
 64
     0
275
    -2
285
     1
 65
     0
276
    -2
286
     1
 66
     0
277
    -2
287
     1
 67
     0
278
    -2
288
     1
 68
     0
279
    -2
289
     1
 69
     0
  7
STANDARD
140
0.25
170
     5
 62
     0
 63
     7
283
     0
274
    -2
284
     1
 64
     0
275
    -2
285
     1
 65
     0
276
    -2
286
     1
 66
     0
277
    -2
287
     1
 67
     0
278
    -2
288
     1
 68
     0
279
    -2
289
     1
 69
     0
  7
STANDARD
140
0.18
170
     5
 62
     0
 63
     7
283
     0
274
    -2
284
     1
 64
     0
275
    -2
285
     1
 65
     0
276
    -2
286
     1
 66
     0
277
    -2
287
     1
 67
     0
278
    -2
288
     1
 68
     0
279
    -2
289
     1
 69
     0
  0
DICTIONARYVAR
  5
BDA
102
{ACAD_REACTORS
330
BD9
102
}
330
BD9
100
DictionaryVariables
280
     0
  1
STANDARD
  0
DICTIONARYVAR
  5
1A49
102
{ACAD_REACTORS
330
BD9
102
}
330
BD9
100
DictionaryVariables
280
     0
  1
1
  0
DICTIONARYVAR
  5
1A4A
102
{ACAD_REACTORS
330
BD9
102
}
330
BD9
100
DictionaryVariables
280
     0
  1

  0
DICTIONARY
  5
1A55
330
25
100
AcDbDictionary
280
     1
281
     1
  3
ACAD_XREC_ROUNDTRIP
360
1A56
  0
DICTIONARY
  5
1A53
330
21
100
AcDbDictionary
280
     1
281
     1
  3
ACAD_XREC_ROUNDTRIP
360
1A54
  0
XRECORD
  5
1A56
102
{ACAD_REACTORS
330
1A55
102
}
330
1A55
100
AcDbXrecord
280
     1
102
SHADEPLOT
 70
     0
102
SHADEPLOTRESLEVEL
 70
     2
102
SHADEPLOTCUSTOMDPI
 70
   300
  0
XRECORD
  5
1A54
102
{ACAD_REACTORS
330
1A53
102
}
330
1A53
100
AcDbXrecord
280
     1
102
SHADEPLOT
 70
     0
102
SHADEPLOTRESLEVEL
 70
     2
102
SHADEPLOTCUSTOMDPI
 70
   300
  0
ENDSEC
  0
EOF
